<?xml version="1.0" standalone="no"?>
<!DOCTYPE svg PUBLIC "-//W3C//DTD SVG 1.1//EN" "http://www.w3.org/Graphics/SVG/1.1/DTD/svg11.dtd" >
<svg xmlns="http://www.w3.org/2000/svg" xmlns:xlink="http://www.w3.org/1999/xlink" version="1.1">
<metadata>
Created by FontForge 20170731 at Mon Feb 13 21:55:15 2006
 By Aleksey,,,
Copyright (c) 1990 Adobe Systems Incorporated.  All Rights Reserved.Helvetica is a trademark of Linotype AG and/or its subsidiaries.
</metadata>
<defs>
<font id="HelveticaNeue-MediumExt" horiz-adv-x="722" >
  <font-face 
    font-family="Helvetica Neue"
    font-weight="500"
    font-stretch="normal"
    units-per-em="1000"
    panose-1="0 0 0 0 0 0 0 0 0 0"
    ascent="800"
    descent="-200"
    x-height="530"
    cap-height="714"
    bbox="-172 -220 1159 978"
    underline-thickness="50"
    underline-position="-200"
    unicode-range="U+0020-FB02"
  />
<missing-glyph horiz-adv-x="352" 
 />
    <glyph glyph-name=".notdef" horiz-adv-x="352" 
 />
    <glyph glyph-name=".null" horiz-adv-x="0" 
 />
    <glyph glyph-name="nonmarkingreturn" horiz-adv-x="333" 
 />
    <glyph glyph-name="space" unicode=" " horiz-adv-x="352" 
 />
    <glyph glyph-name="exclam" unicode="!" horiz-adv-x="352" 
d="M98 523v191h156v-191l-28 -314h-100zM98 0v142h156v-142h-156z" />
    <glyph glyph-name="quotedbl" unicode="&#x22;" horiz-adv-x="352" 
d="M220 405v309h100v-309h-100zM32 405v309h100v-309h-100z" />
    <glyph glyph-name="numbersign" unicode="#" horiz-adv-x="600" 
d="M329 207h-96l-29 -207h-88l29 207h-90v82h101l16 116h-90v82h101l29 207h88l-29 -207h96l29 207h88l-29 -207h90v-82h-101l-16 -116h90v-82h-101l-29 -207h-88zM260 405l-16 -116h96l16 116h-96z" />
    <glyph glyph-name="dollar" unicode="$" horiz-adv-x="740" 
d="M395 285v-195q72 2 119 26t47 73q0 44 -42.5 64.5t-123.5 31.5zM343 417v179q-152 -5 -152 -92q0 -39 38 -57.5t114 -29.5zM343 -116v100q-321 15 -326 242h162q7 -120 164 -136v206q-47 6 -74 10.5t-68.5 14t-66.5 23t-50 34t-37 50.5t-12 69q0 106 85 157.5t223 53.5
v58h52v-58q49 -3 94 -14t92 -34t79 -66.5t39 -102.5h-162q-3 37 -41.5 67.5t-100.5 37.5v-182q45 -5 66.5 -8t63 -10.5t63.5 -16t52 -24.5t45 -35.5t26.5 -48t11.5 -64.5q0 -61 -29.5 -106t-80 -69t-104 -35.5t-114.5 -12.5v-100h-52z" />
    <glyph glyph-name="percent" unicode="%" horiz-adv-x="1019" 
d="M152 514q0 -47 21 -82.5t69 -35.5t69 35.5t21 82.5t-21 82.5t-69 35.5t-69 -35.5t-21 -82.5zM254 -16l417 724h94l-417 -724h-94zM687 178q0 -47 21 -82.5t69 -35.5t69 35.5t21 82.5t-21 82.5t-69 35.5t-69 -35.5t-21 -82.5zM52 514q0 90 46 142t144 52t144 -52t46 -142
t-46 -142t-144 -52t-144 52t-46 142zM587 178q0 90 46 142t144 52t144 -52t46 -142t-46 -142t-144 -52t-144 52t-46 142z" />
    <glyph glyph-name="ampersand" unicode="&#x26;" horiz-adv-x="870" 
d="M701 -1l-77 74q-102 -93 -273 -93q-144 0 -214 65t-70 156q0 81 58 134t133 76q-75 67 -75 142q0 72 62.5 116.5t152.5 44.5q57 0 99 -15t64.5 -39.5t33 -50t10.5 -51.5q0 -107 -144 -164l163 -151q45 53 59 117l103 -27q-13 -80 -81 -164l184 -170h-188zM383 453
q26 13 38.5 19.5t28.5 19t22.5 27t6.5 33.5q0 68 -82 68q-43 0 -62.5 -18.5t-19.5 -46.5q0 -17 13.5 -38.5t23 -31.5t31.5 -32zM543 143l-214 199q-24 -11 -39.5 -20.5t-36.5 -25.5t-31.5 -37.5t-10.5 -46.5q0 -39 16.5 -66.5t43.5 -41t53 -19t53 -5.5q39 0 73.5 11t51.5 22
t41 30z" />
    <glyph glyph-name="quotesingle" unicode="'" horiz-adv-x="352" 
d="M126 405v309h100v-309h-100z" />
    <glyph glyph-name="parenleft" unicode="(" horiz-adv-x="426" 
d="M84 262q0 130 49.5 238t146.5 214h100q-77 -93 -117.5 -210.5t-40.5 -241.5t40.5 -241.5t117.5 -210.5h-100q-96 105 -146 214t-50 238z" />
    <glyph glyph-name="parenright" unicode=")" horiz-adv-x="426" 
d="M342 262q0 -130 -49.5 -238t-146.5 -214h-100q77 93 117.5 210.5t40.5 241.5t-40.5 241.5t-117.5 210.5h100q96 -105 146 -214t50 -238z" />
    <glyph glyph-name="asterisk" unicode="*" horiz-adv-x="463" 
d="M71 401l92 101l-129 48l31 81l123 -49v132h88v-134l122 51l31 -81l-128 -48l93 -101l-69 -53l-95 105l-93 -105z" />
    <glyph glyph-name="plus" unicode="+" horiz-adv-x="600" 
d="M250 0v203h-203v100h203v203h100v-203h203v-100h-203v-203h-100z" />
    <glyph glyph-name="comma" unicode="," horiz-adv-x="352" 
d="M98 0v142h156v-108q0 -180 -156 -201v59q43 14 56.5 36t17.5 72h-74z" />
    <glyph glyph-name="hyphen" unicode="-" horiz-adv-x="481" 
d="M64 223v118h353v-118h-353z" />
    <glyph glyph-name="period" unicode="." horiz-adv-x="352" 
d="M98 0v142h156v-142h-156z" />
    <glyph glyph-name="slash" unicode="/" horiz-adv-x="406" 
d="M-6 -20l304 754h114l-304 -754h-114z" />
    <glyph glyph-name="zero" unicode="0" horiz-adv-x="740" 
d="M696 347q0 -165 -84 -264t-254 -99q-154 0 -234 99.5t-80 263.5t84 262.5t254 98.5q153 0 233.5 -99.5t80.5 -261.5zM552 347q0 70 -17 125.5t-59.5 92.5t-105.5 37t-105.5 -37t-59.5 -92.5t-17 -125.5q0 -111 44.5 -184t137.5 -73t137.5 73t44.5 184z" />
    <glyph glyph-name="one" unicode="1" horiz-adv-x="500" 
d="M233 0v480h-209v100h42q30 0 58 5t59.5 17t54 38.5t29.5 63.5h110v-704h-144z" />
    <glyph glyph-name="two" unicode="2" horiz-adv-x="740" 
d="M675 0h-631q0 63 22 115t63.5 90t86.5 65t106 53q129 55 160 78q44 33 44 86q0 58 -45.5 86.5t-97.5 28.5q-80 0 -123.5 -39.5t-49.5 -109.5h-150q0 124 85 189.5t220 65.5q85 0 152.5 -21.5t113 -76t45.5 -136.5q0 -79 -54.5 -129t-149.5 -88q-20 -8 -63 -24t-66 -25.5
t-53 -24.5t-48.5 -32.5t-29.5 -38.5h463v-112z" />
    <glyph glyph-name="three" unicode="3" horiz-adv-x="740" 
d="M46 222h144q9 -132 176 -132q75 0 123.5 30.5t48.5 85.5q0 20 -6 37t-22 34.5t-50.5 28t-83.5 10.5h-84v100h94q128 0 128 85q0 43 -37.5 72t-116.5 29q-74 0 -111 -35t-40 -85h-144q5 62 32.5 107t71.5 70t95.5 37t112.5 12q152 0 219.5 -58t67.5 -146q0 -40 -26 -75.5
t-82 -52.5v-2q63 -15 100.5 -58.5t37.5 -100.5q0 -28 -5.5 -54t-26.5 -60t-54.5 -58.5t-96.5 -41.5t-147 -17q-61 0 -113.5 11t-100.5 36t-76 74t-28 117z" />
    <glyph glyph-name="four" unicode="4" horiz-adv-x="740" 
d="M443 258v320h-2l-264 -320h266zM39 152v118l380 434h156v-446h126v-106h-126v-152h-132v152h-404z" />
    <glyph glyph-name="five" unicode="5" horiz-adv-x="740" 
d="M70 313l66 379h504v-112h-402l-30 -158q77 43 184 43q129 0 212.5 -58t83.5 -167q0 -117 -82.5 -186.5t-241.5 -69.5q-141 0 -226 55t-94 157h150q25 -106 167 -106q47 0 85 11.5t65 43t27 79.5q0 69 -48.5 105t-120.5 36q-97 0 -159 -55z" />
    <glyph glyph-name="six" unicode="6" horiz-adv-x="740" 
d="M672 518h-147q-21 84 -138 84q-91 0 -142.5 -60t-56.5 -161q44 44 93 61t123 17q147 0 216.5 -66t69.5 -164q0 -100 -81 -172.5t-239 -72.5q-326 0 -326 363q0 44 7 88t29 95t56.5 89t95 63.5t138.5 25.5q276 0 302 -190zM205 221q0 -57 40.5 -94t127.5 -37
q86 0 126.5 37t40.5 94t-40.5 94.5t-126.5 37.5q-87 0 -127.5 -37.5t-40.5 -94.5z" />
    <glyph glyph-name="seven" unicode="7" horiz-adv-x="667" 
d="M16 574v118h622v-121q-120 -132 -212 -282.5t-113 -288.5h-174q13 130 122.5 296t226.5 278h-472z" />
    <glyph glyph-name="eight" unicode="8" horiz-adv-x="740" 
d="M44 198q0 143 145 179v2q-115 34 -115 141q0 84 70 136t226 52q155 0 225 -52t70 -136q0 -107 -115 -141v-2q146 -37 146 -179q0 -26 -7.5 -52.5t-29.5 -56.5t-56.5 -52.5t-94.5 -37.5t-138 -15t-138.5 15t-95 37.5t-56 52.5t-29 56.5t-7.5 52.5zM370 423q71 0 108 23
t37 65q0 91 -145 91q-146 0 -146 -91q0 -42 37.5 -65t108.5 -23zM200 205q0 -53 43 -84t127 -31t127 31t43 84q0 55 -42.5 86.5t-127.5 31.5t-127.5 -31.5t-42.5 -86.5z" />
    <glyph glyph-name="nine" unicode="9" horiz-adv-x="740" 
d="M68 174h147q21 -84 138 -84q91 0 142.5 60t56.5 161q-44 -44 -93 -61t-123 -17q-147 0 -216.5 66t-69.5 164q0 100 81 172.5t239 72.5q326 0 326 -363q0 -44 -7 -88t-29 -95t-56.5 -89t-95 -63.5t-138.5 -25.5q-276 0 -302 190zM535 471q0 57 -40.5 94t-127.5 37
q-86 0 -126.5 -37t-40.5 -94t40.5 -94.5t126.5 -37.5q87 0 127.5 37.5t40.5 94.5z" />
    <glyph glyph-name="colon" unicode=":" horiz-adv-x="352" 
d="M98 381v142h156v-142h-156zM98 0v142h156v-142h-156z" />
    <glyph glyph-name="semicolon" unicode=";" horiz-adv-x="352" 
d="M98 0v142h156v-108q0 -180 -156 -201v59q43 14 56.5 36t17.5 72h-74zM98 381v142h156v-142h-156z" />
    <glyph glyph-name="less" unicode="&#x3c;" horiz-adv-x="600" 
d="M47 212v82l506 220v-100l-371 -161l371 -161v-100z" />
    <glyph glyph-name="equal" unicode="=" horiz-adv-x="600" 
d="M47 314v100h506v-100h-506zM47 92v100h506v-100h-506z" />
    <glyph glyph-name="greater" unicode="&#x3e;" horiz-adv-x="600" 
d="M553 294v-82l-506 -220v100l371 161l-371 161v100z" />
    <glyph glyph-name="question" unicode="?" horiz-adv-x="704" 
d="M637 508q0 -49 -24.5 -87.5t-59.5 -62.5t-69.5 -45t-59 -47.5t-24.5 -57.5h-138v16q0 38 16.5 69t41.5 50t54.5 38.5t54.5 36t41.5 42.5t16.5 57q0 38 -25 63t-56 33t-68 8q-58 0 -103 -33.5t-46 -104.5h-144q5 118 80.5 181t217.5 63q81 0 140.5 -19.5t91.5 -52.5
t47 -69.5t15 -77.5zM253 0v142h156v-142h-156z" />
    <glyph glyph-name="at" unicode="@" horiz-adv-x="800" 
d="M287 313q0 -41 22 -66.5t56 -25.5q54 0 92 54.5t38 113.5q0 36 -22 61t-55 25q-54 0 -92.5 -52.5t-38.5 -109.5zM528 491l17 58h77l-60 -234q-15 -58 -15 -80q0 -23 17 -23q48 0 87.5 59t39.5 137q0 118 -78.5 184t-199.5 66q-124 0 -208 -86t-84 -215t84 -215t208 -86
q156 0 237 92h79q-50 -80 -132 -124t-179 -44q-159 0 -272 106t-113 271t114 271t277 106q140 0 241.5 -87.5t101.5 -221.5q0 -70 -26.5 -128.5t-66 -92.5t-79.5 -52.5t-72 -18.5q-27 0 -45 15.5t-19 43.5h-2q-16 -26 -49.5 -42.5t-67.5 -16.5q-63 0 -108 49.5t-45 118.5
q0 103 63 182.5t162 79.5q79 0 116 -72z" />
    <glyph glyph-name="A" unicode="A" horiz-adv-x="796" 
d="M272 289h246l-122 301zM-9 0l318 714h178l318 -714h-167l-75 177h-336l-74 -177h-162z" />
    <glyph glyph-name="B" unicode="B" horiz-adv-x="833" 
d="M73 0v714h472q205 0 205 -178q0 -36 -9 -63t-26.5 -44t-29.5 -25t-32 -17q130 -40 130 -177q0 -34 -11.5 -67.5t-37 -67t-76 -54.5t-118.5 -21h-467zM223 602v-178h280q97 0 97 91q0 45 -29 66t-94 21h-254zM223 318v-206h269q62 0 98.5 21.5t36.5 83.5q0 48 -30.5 74.5
t-82.5 26.5h-291z" />
    <glyph glyph-name="C" unicode="C" horiz-adv-x="870" 
d="M822 450h-162q-11 80 -73 126t-157 46q-108 0 -174.5 -71.5t-66.5 -206.5q0 -112 70 -182t181 -70q55 0 97.5 17t67 46t37.5 57.5t18 60.5h162q-7 -46 -22 -85.5t-46 -78.5t-75 -67t-112 -45t-153 -17q-124 0 -212 53t-128.5 136.5t-40.5 187.5q0 78 23.5 144.5t70 119
t125 83t180.5 30.5q176 0 276.5 -80.5t113.5 -203.5z" />
    <glyph glyph-name="D" unicode="D" horiz-adv-x="852" 
d="M223 602v-490h211q46 0 81.5 9.5t69.5 33.5t53 75t19 126q0 66 -16.5 114t-39.5 73t-58 39t-60 17t-57 3h-203zM73 0v714h385q102 0 172.5 -27.5t108 -79t53 -113.5t15.5 -144q0 -49 -9 -95.5t-31.5 -94t-57 -82t-90 -56.5t-125.5 -22h-421z" />
    <glyph glyph-name="E" unicode="E" horiz-adv-x="741" 
d="M73 0v714h620v-112h-470v-180h451v-112h-451v-198h478v-112h-628z" />
    <glyph glyph-name="F" unicode="F" horiz-adv-x="685" 
d="M73 0v714h594v-112h-444v-180h420v-112h-420v-310h-150z" />
    <glyph glyph-name="G" unicode="G" horiz-adv-x="907" 
d="M834 392v-392h-88l-21 93q-44 -53 -116 -83t-156 -30q-110 0 -192.5 30t-131 83.5t-72.5 119.5t-24 144q0 77 24.5 144t73.5 119.5t130.5 83t187.5 30.5q158 0 259 -71t113 -179h-162q-19 69 -77.5 103.5t-136.5 34.5q-132 0 -194 -72.5t-62 -197.5q0 -133 71.5 -196.5
t176.5 -63.5q111 0 169.5 48t77.5 140h-202v112h352z" />
    <glyph glyph-name="H" unicode="H" horiz-adv-x="889" 
d="M73 0v714h150v-278h443v278h150v-714h-150v324h-443v-324h-150z" />
    <glyph glyph-name="I" unicode="I" horiz-adv-x="296" 
d="M73 0v714h150v-714h-150z" />
    <glyph glyph-name="J" unicode="J" horiz-adv-x="630" 
d="M407 258v456h150v-498q0 -33 -6 -63t-23.5 -63t-46 -56t-77.5 -38.5t-113 -15.5q-57 0 -101.5 10.5t-73 25.5t-48.5 40.5t-30 46.5t-15.5 53.5t-6.5 51.5t-1 49h150q0 -30 1 -46.5t7.5 -42.5t18.5 -40t37 -25t60 -11q28 0 49 6.5t33.5 21t20 28t11 36t4 36.5t0.5 38z" />
    <glyph glyph-name="K" unicode="K" horiz-adv-x="815" 
d="M73 0v714h150v-331l365 331h206l-333 -290l354 -424h-203l-268 329l-121 -107v-222h-150z" />
    <glyph glyph-name="L" unicode="L" horiz-adv-x="667" 
d="M73 0v714h150v-596h434v-118h-584z" />
    <glyph glyph-name="M" unicode="M" horiz-adv-x="1074" 
d="M73 0v714h216l250 -554l248 554h214v-714h-141l6 590h-2l-264 -590h-128l-262 590h-2l6 -590h-141z" />
    <glyph glyph-name="N" unicode="N" horiz-adv-x="889" 
d="M73 0v714h172l425 -536h2v536h144v-714h-169l-428 536h-2v-536h-144z" />
    <glyph glyph-name="O" unicode="O" horiz-adv-x="906" 
d="M453 -20q-110 0 -192.5 30t-131 83.5t-72.5 119.5t-24 144t24 144t72.5 119.5t131 83.5t192.5 30t192.5 -30t131 -83.5t72.5 -119.5t24 -144t-24 -144t-72.5 -119.5t-131 -83.5t-192.5 -30zM453 92q124 0 194 72.5t70 192.5t-70 192.5t-194 72.5t-194 -72.5t-70 -192.5
t70 -192.5t194 -72.5z" />
    <glyph glyph-name="P" unicode="P" horiz-adv-x="778" 
d="M223 602v-218h241q67 0 99 23.5t32 84.5q0 110 -120 110h-252zM73 0v714h440q122 0 177 -62.5t55 -159.5q0 -90 -58.5 -155t-171.5 -65h-292v-272h-150z" />
    <glyph glyph-name="Q" unicode="Q" horiz-adv-x="906" 
d="M779 -94l-126 108q-85 -34 -200 -34q-110 0 -192.5 30t-131 83.5t-72.5 119.5t-24 144t24 144t72.5 119.5t131 83.5t192.5 30t192.5 -30t131 -83.5t72.5 -119.5t24 -144q0 -185 -120 -285l98 -83zM546 106l-66 57l71 82l95 -81q71 71 71 193q0 120 -70 192.5t-194 72.5
t-194 -72.5t-70 -192.5t70 -192.5t194 -72.5q55 0 93 14z" />
    <glyph glyph-name="R" unicode="R" horiz-adv-x="815" 
d="M73 0v714h452q241 0 241 -194q0 -67 -32.5 -111t-85.5 -61v-2q60 -13 82 -61t22 -132q0 -113 30 -153h-162q-18 33 -18 108q0 88 -24 131t-100 43h-255v-282h-150zM223 394h259q65 0 96.5 23.5t31.5 81.5q0 103 -128 103h-259v-208z" />
    <glyph glyph-name="S" unicode="S" horiz-adv-x="741" 
d="M35 513q0 113 87 167t228 54q41 0 77.5 -3.5t86.5 -17t86.5 -36.5t65 -67t33.5 -103h-162q-4 47 -48.5 81t-131.5 34q-78 0 -122 -24.5t-44 -73.5q0 -34 29.5 -54t76.5 -28.5t103.5 -14.5t113 -17.5t103.5 -31.5t76.5 -62t29.5 -104q0 -66 -31.5 -113.5t-84 -72
t-109 -35.5t-118.5 -11q-185 0 -272.5 66.5t-89.5 184.5h162q3 -69 57 -104t148 -35q76 0 126 25t50 80q0 36 -29 57.5t-75.5 31.5t-102.5 17t-112 18.5t-102.5 31t-75.5 60.5t-29 100z" />
    <glyph glyph-name="T" unicode="T" horiz-adv-x="686" 
d="M268 0v602h-268v112h686v-112h-268v-602h-150z" />
    <glyph glyph-name="U" unicode="U" horiz-adv-x="833" 
d="M67 307v407h150v-403q0 -39 2 -62t12.5 -57t30 -52.5t59 -33t95.5 -14.5q41 0 73 7.5t52.5 18t35.5 30t22.5 35.5t11.5 41.5t4.5 42.5t0.5 44v403h150v-407q0 -34 -1 -56t-8 -60t-19.5 -63t-38.5 -55.5t-62 -49t-92.5 -31t-128.5 -12.5q-71 0 -127.5 12.5t-92.5 31
t-62 49t-38.5 55.5t-19.5 63t-8 60t-1 56z" />
    <glyph glyph-name="V" unicode="V" horiz-adv-x="759" 
d="M302 0l-318 714h168l233 -572l228 572h162l-314 -714h-159z" />
    <glyph glyph-name="W" unicode="W" horiz-adv-x="1148" 
d="M231 0l-237 714h162l161 -554h2l178 554h156l179 -554h2l164 554h156l-240 -714h-162l-178 548h-2l-179 -548h-162z" />
    <glyph glyph-name="X" unicode="X" horiz-adv-x="741" 
d="M-12 0l291 368l-272 346h187l178 -248l185 248h181l-277 -346l292 -368h-190l-194 263l-196 -263h-185z" />
    <glyph glyph-name="Y" unicode="Y" horiz-adv-x="760" 
d="M305 0v272l-312 442h183l204 -318l204 318h183l-312 -442v-272h-150z" />
    <glyph glyph-name="Z" unicode="Z" 
d="M15 0v109l492 493h-458v112h655v-109l-487 -487h490v-118h-692z" />
    <glyph glyph-name="bracketleft" unicode="[" horiz-adv-x="426" 
d="M104 -190v904h274v-100h-148v-704h148v-100h-274z" />
    <glyph glyph-name="backslash" unicode="\" horiz-adv-x="406" 
d="M298 -20l-304 754h114l304 -754h-114z" />
    <glyph glyph-name="bracketright" unicode="]" horiz-adv-x="426" 
d="M196 -90v704h-148v100h274v-904h-274v100h148z" />
    <glyph glyph-name="asciicircum" unicode="^" horiz-adv-x="600" 
d="M440 288l-140 286l-140 -286h-100l199 404h82l199 -404h-100z" />
    <glyph glyph-name="underscore" unicode="_" horiz-adv-x="500" 
d="M500 -125h-500v50h500v-50z" />
    <glyph glyph-name="grave" unicode="`" horiz-adv-x="241" 
d="M115 745l89 -142h-119l-140 142h170z" />
    <glyph glyph-name="a" unicode="a" horiz-adv-x="704" 
d="M625 372v-251q0 -30 30 -30q29 0 45 3v-97q-65 -12 -98 -12q-31 0 -53 7t-32 20t-13.5 21t-5.5 20q-76 -73 -249 -73q-103 0 -159.5 44t-56.5 122q0 30 9 54.5t22 41t35.5 29t40 19.5t46.5 12t43.5 7t41.5 4q53 5 85 8.5t59 8t40 8.5t22 10.5t11 13.5t2 18q0 76 -150 76
q-138 0 -145 -88h-135q14 99 84.5 140.5t195.5 41.5q79 0 135.5 -12.5t85 -29.5t44 -44.5t18 -46t2.5 -45.5zM487 213v51q-28 -12 -63 -18t-118 -15q-75 -9 -102 -27t-27 -53q0 -83 111 -83q31 0 62.5 6.5t64 21.5t52.5 45.5t20 71.5z" />
    <glyph glyph-name="b" unicode="b" 
d="M366 438q-90 0 -134 -50.5t-44 -124.5q0 -75 44 -126t134 -51q91 0 135 51t44 126q0 74 -44 124.5t-135 50.5zM56 0v726h138v-272h2q58 90 203 90q73 0 130 -25t91 -66t51.5 -89.5t17.5 -100.5q0 -53 -17.5 -102t-51.5 -90t-91 -66t-130 -25q-75 0 -134.5 32t-68.5 61h-2
v-73h-138z" />
    <glyph glyph-name="c" unicode="c" horiz-adv-x="685" 
d="M652 344h-144q-8 42 -48.5 71t-98.5 29q-90 0 -137 -52t-47 -127q0 -76 42.5 -127.5t126.5 -51.5q75 0 108 27t57 90h144q-8 -52 -30 -92.5t-53 -63.5t-61 -38t-65 -20.5t-52 -7t-33 -1.5q-166 0 -247 82t-81 203q0 130 88 207.5t240 77.5q29 0 59 -4t69.5 -17.5
t71 -34.5t57.5 -60t34 -90z" />
    <glyph glyph-name="d" unicode="d" 
d="M177 263q0 -75 44 -126t135 -51q90 0 134 51t44 126q0 74 -44 124.5t-134 50.5q-91 0 -135 -50.5t-44 -124.5zM666 726v-726h-138v73h-2q-9 -29 -68.5 -61t-134.5 -32q-73 0 -130 25t-91 66t-51.5 90t-17.5 102q0 52 17.5 100.5t51.5 89.5t91 66t130 25q145 0 203 -90h2
v272h138z" />
    <glyph glyph-name="e" unicode="e" 
d="M683 230h-500q1 -25 10.5 -49t29 -48t55.5 -38.5t85 -14.5q64 0 99.5 19.5t58.5 56.5h150q-89 -176 -304 -176q-86 0 -151.5 23.5t-103 64t-55.5 89t-18 103.5q0 132 88.5 211t230.5 79q85 0 149.5 -24.5t101.5 -67.5t55.5 -95.5t18.5 -112.5v-20zM183 318h356
q-12 72 -64.5 105t-114.5 33q-59 0 -110 -32.5t-67 -105.5z" />
    <glyph glyph-name="f" unicode="f" horiz-adv-x="370" 
d="M98 0v430h-109v100h109v68q0 27 5 47t20 42.5t49 34.5t85 12q60 0 124 -4v-100q-30 4 -71 4q-46 0 -60 -13t-14 -50v-41h145v-100h-145v-430h-138z" />
    <glyph glyph-name="g" unicode="g" horiz-adv-x="741" 
d="M173 276q0 -68 46 -116t146 -48q79 0 128.5 46.5t49.5 119.5q0 45 -19 78t-50 50t-61 24.5t-60 7.5q-78 0 -129 -45.5t-51 -116.5zM543 532h138v-514q0 -105 -75.5 -171.5t-239.5 -66.5q-296 0 -311 173h144q10 -47 50.5 -63t112.5 -16q56 0 94.5 13.5t56 38t24 48
t6.5 53.5v64h-3q-89 -85 -216 -85q-55 0 -105.5 14.5t-94 45t-69.5 84t-26 124.5q0 53 17.5 100t52.5 85.5t92.5 61.5t131.5 23q80 0 137 -24t81 -66h2v78z" />
    <glyph glyph-name="h" unicode="h" horiz-adv-x="686" 
d="M56 0v726h138v-276h2q74 94 209 94q46 0 84 -9t71 -29t51.5 -57.5t18.5 -88.5v-360h-138v316q0 122 -133 122q-64 0 -114.5 -38t-50.5 -115v-285h-138z" />
    <glyph glyph-name="i" unicode="i" horiz-adv-x="258" 
d="M60 0v530h138v-530h-138zM60 614v112h138v-112h-138z" />
    <glyph glyph-name="j" unicode="j" horiz-adv-x="258" 
d="M60 -20v550h138v-554q0 -97 -38.5 -137.5t-142.5 -40.5q-21 0 -69 2v106q28 -2 48 -2q33 0 48.5 16t15.5 60zM60 614v112h138v-112h-138z" />
    <glyph glyph-name="k" unicode="k" horiz-adv-x="630" 
d="M56 0v726h138v-408l245 212h195l-245 -200l266 -330h-186l-188 242l-87 -71v-171h-138z" />
    <glyph glyph-name="l" unicode="l" horiz-adv-x="258" 
d="M60 0v726h138v-726h-138z" />
    <glyph glyph-name="m" unicode="m" horiz-adv-x="1074" 
d="M468 0v316q0 26 -3.5 43t-15 37.5t-39.5 31t-72 10.5q-21 0 -43.5 -6.5t-46 -21t-39 -44.5t-15.5 -71v-295h-138v530h138v-80h2q74 94 209 94q145 0 187 -98q29 42 83.5 70t131.5 28q29 0 55 -4t55.5 -17t51 -33.5t35.5 -56t14 -81.5v-352h-138v316q0 26 -3.5 43
t-15 37.5t-39.5 31t-72 10.5q-21 0 -43.5 -6.5t-46 -21t-39 -44.5t-15.5 -71v-295h-138z" />
    <glyph glyph-name="n" unicode="n" horiz-adv-x="686" 
d="M56 0v530h138v-80h2q74 94 209 94q46 0 84 -9t71 -29t51.5 -57.5t18.5 -88.5v-360h-138v316q0 122 -133 122q-64 0 -114.5 -38t-50.5 -115v-285h-138z" />
    <glyph glyph-name="o" unicode="o" 
d="M177 265q0 -77 45 -128t139 -51t139 51t45 128t-45 128t-139 51t-139 -51t-45 -128zM33 265q0 121 81 203t247 82t247 -82t81 -203t-81 -203t-247 -82t-247 82t-81 203z" />
    <glyph glyph-name="p" unicode="p" 
d="M366 438q-90 0 -134 -50.5t-44 -124.5q0 -75 44 -126t134 -51q91 0 135 51t44 126q0 74 -44 124.5t-135 50.5zM56 -202v732h138v-76h2q58 90 203 90q73 0 130 -25t91 -66t51.5 -89.5t17.5 -100.5q0 -53 -17.5 -102t-51.5 -90t-91 -66t-130 -25q-75 0 -134.5 32t-68.5 61
h-2v-275h-138z" />
    <glyph glyph-name="q" unicode="q" 
d="M177 263q0 -75 44 -126t135 -51q90 0 134 51t44 126q0 74 -44 124.5t-134 50.5q-91 0 -135 -50.5t-44 -124.5zM528 454v76h138v-732h-138v275h-2q-9 -29 -68.5 -61t-134.5 -32q-73 0 -130 25t-91 66t-51.5 90t-17.5 102q0 52 17.5 100.5t51.5 89.5t91 66t130 25
q145 0 203 -90h2z" />
    <glyph glyph-name="r" unicode="r" horiz-adv-x="463" 
d="M56 0v530h138v-103h2q72 117 200 117q25 0 55 -5v-136q-41 13 -88 13q-29 0 -56.5 -8t-54 -25.5t-42.5 -50t-16 -76.5v-256h-138z" />
    <glyph glyph-name="s" unicode="s" horiz-adv-x="648" 
d="M29 166h150q2 -37 29.5 -59t56 -27.5t60.5 -5.5q59 0 101.5 16.5t42.5 51.5q0 32 -31.5 46t-140.5 29q-57 8 -90 14t-68 17.5t-52.5 27.5t-28.5 41.5t-11 61.5q0 43 19.5 75.5t47.5 50t66.5 28.5t69 14t62.5 3t61.5 -2.5t72 -13t73.5 -28.5t54.5 -54t25.5 -84h-144
q-12 88 -150 88q-55 0 -87.5 -19t-32.5 -42t9.5 -33.5t38 -18t98.5 -17.5q42 -6 63 -9.5t54.5 -9.5t50.5 -12t40.5 -15t35 -19.5t23.5 -25t16.5 -33t4.5 -41.5q0 -95 -79.5 -138t-213.5 -43q-50 0 -94.5 7t-93 25t-78 57.5t-31.5 96.5z" />
    <glyph glyph-name="t" unicode="t" horiz-adv-x="407" 
d="M99 148v282h-110v100h110v164h138v-164h144v-100h-144v-242q0 -52 8.5 -73t41.5 -21t99 2v-100q-59 -8 -106 -8q-61 0 -98.5 10t-55 33.5t-22.5 48.5t-5 68z" />
    <glyph glyph-name="u" unicode="u" horiz-adv-x="686" 
d="M56 176v354h138v-302q0 -70 27.5 -106t109.5 -36q57 0 109 38.5t52 114.5v291h138v-530h-138v74h-2q-74 -94 -209 -94q-46 0 -84 9t-71 30.5t-51.5 61t-18.5 95.5z" />
    <glyph glyph-name="v" unicode="v" horiz-adv-x="630" 
d="M241 0l-242 530h156l158 -394l164 394h156l-242 -530h-150z" />
    <glyph glyph-name="w" unicode="w" horiz-adv-x="982" 
d="M205 0l-201 530h150l136 -388h2l127 388h144l127 -388h2l136 388h150l-201 -530h-156l-129 368h-2l-129 -368h-156z" />
    <glyph glyph-name="x" unicode="x" horiz-adv-x="648" 
d="M-8 0l238 273l-221 257h178l136 -172l139 172h178l-223 -257l239 -273h-184l-149 188l-153 -188h-178z" />
    <glyph glyph-name="y" unicode="y" horiz-adv-x="611" 
d="M237 9l-247 521h150l170 -379l166 379h147l-289 -624q-31 -68 -67.5 -88t-123.5 -20q-32 0 -86 2v106q22 -2 69 -2q60 0 80 41z" />
    <glyph glyph-name="z" unicode="z" horiz-adv-x="611" 
d="M22 0v100l357 324h-338v106h535v-94l-364 -330h377v-106h-567z" />
    <glyph glyph-name="braceleft" unicode="{" horiz-adv-x="426" 
d="M373 -90v-100h-116q-41 0 -77 34.5t-36 92.5v170q0 47 -26.5 75.5t-58.5 29.5v100q32 1 58.5 29.5t26.5 74.5v171q0 58 36 92.5t77 34.5h116v-100h-53q-50 0 -50 -77v-149q0 -34 -10 -59.5t-26.5 -38t-29 -18.5t-25.5 -9v-2q13 -3 25.5 -9t29 -18.5t26.5 -38t10 -59.5
v-149q0 -77 50 -77h53z" />
    <glyph glyph-name="bar" unicode="|" horiz-adv-x="222" 
d="M58 -20v754h106v-754h-106z" />
    <glyph glyph-name="braceright" unicode="}" horiz-adv-x="426" 
d="M53 614v100h116q41 0 77 -34.5t36 -92.5v-170q0 -47 26.5 -75.5t58.5 -29.5v-100q-32 -1 -58.5 -29.5t-26.5 -74.5v-171q0 -58 -36 -92.5t-77 -34.5h-116v100h53q50 0 50 77v149q0 34 10 59.5t26.5 38t29 18.5t25.5 9v2q-13 3 -25.5 9t-29 18.5t-26.5 38t-10 59.5v149
q0 77 -50 77h-53z" />
    <glyph glyph-name="asciitilde" unicode="~" horiz-adv-x="600" 
d="M492 339l42 -82q-20 -28 -34 -43.5t-38.5 -29t-52.5 -13.5q-37 0 -105 35t-112 35q-51 0 -84 -74l-42 82q46 86 125 86q40 0 116 -34q74 -36 97 -36q19 0 38 14t27 25t23 35z" />
    <glyph glyph-name="exclamdown" unicode="&#xa1;" horiz-adv-x="352" 
d="M98 -184v191l28 314h100l28 -314v-191h-156zM98 388v142h156v-142h-156z" />
    <glyph glyph-name="cent" unicode="&#xa2;" horiz-adv-x="740" 
d="M352 90v351q-75 -10 -111.5 -59.5t-36.5 -113.5q0 -154 148 -178zM404 631v-81q38 -2 76 -11t82 -30t75.5 -63.5t41.5 -101.5h-144q-7 39 -43 67.5t-88 32.5v-354q32 3 55.5 13.5t39 31t22.5 33.5t18 39h141q-8 -58 -35 -101t-58.5 -65t-72 -36t-64 -17t-46.5 -4v-104
h-52v104q-148 11 -220 91.5t-72 196.5q0 108 72.5 186t219.5 89v84h52z" />
    <glyph glyph-name="sterling" unicode="&#xa3;" horiz-adv-x="740" 
d="M48 307v76h55q-25 51 -25 99q0 71 44.5 123.5t110 77.5t140.5 25q311 0 311 -241h-150q-4 64 -43.5 96.5t-108.5 32.5t-111.5 -33.5t-42.5 -87.5q0 -40 25 -92h201v-76h-173q6 -28 6 -64q0 -37 -23 -72t-56 -54v-2q50 21 98 21q32 0 96 -14t97 -14q74 0 154 47l41 -114
q-34 -25 -86.5 -41t-108.5 -16q-31 0 -120 20t-127 20q-87 0 -147 -40l-59 101q103 60 103 148q0 34 -18 74h-83z" />
    <glyph glyph-name="currency" unicode="&#xa4;" horiz-adv-x="600" 
d="M36 539l71 71l57 -57q63 41 136 41q76 0 136 -41l57 57l71 -71l-57 -57q41 -60 41 -136q0 -73 -41 -136l57 -57l-71 -71l-57 57q-60 -41 -136 -41q-73 0 -136 41l-57 -57l-71 71l57 57q-41 60 -41 136t41 136zM152 346q0 -62 43 -105t105 -43t105 43t43 105t-43 105
t-105 43t-105 -43t-43 -105z" />
    <glyph glyph-name="yen" unicode="&#xa5;" horiz-adv-x="740" 
d="M298 0v140h-174v76h174v56l-19 28h-155v76h102l-222 316h178l188 -296l188 296h178l-222 -316h102v-76h-155l-19 -28v-56h174v-76h-174v-140h-144z" />
    <glyph glyph-name="brokenbar" unicode="&#xa6;" horiz-adv-x="222" 
d="M58 -20v275h106v-275h-106zM58 459v275h106v-275h-106z" />
    <glyph glyph-name="section" unicode="&#xa7;" horiz-adv-x="741" 
d="M83 11h144q22 -101 148 -101q130 0 130 72q0 29 -22.5 45.5t-58.5 28.5l-233 80q-74 26 -113 67t-39 111q0 52 28.5 91t77.5 52q-46 38 -46 101q0 62 41 103.5t97.5 57t124.5 15.5q73 0 130.5 -18t98 -62.5t44.5 -112.5h-144q-2 39 -25.5 60.5t-50.5 27t-66 5.5
q-46 0 -79 -17.5t-33 -55.5q0 -15 8.5 -27.5t26.5 -21.5t28 -12.5t31 -10.5l230 -75q62 -20 101.5 -62t39.5 -105q0 -96 -102 -148q27 -21 38 -42.5t11 -55.5q0 -57 -27.5 -97.5t-72.5 -59.5t-86.5 -26.5t-85.5 -7.5q-259 0 -294 201zM476 315l-255 88q-56 -31 -56 -81
q0 -14 7.5 -26.5t17 -21t27 -17t28.5 -12.5t30.5 -10t23.5 -8l221 -79q50 37 50 78q0 18 -8.5 33.5t-24.5 26t-29 16.5t-32 13z" />
    <glyph glyph-name="dieresis" unicode="&#xa8;" horiz-adv-x="241" 
d="M-79 603v112h138v-112h-138zM182 603v112h138v-112h-138z" />
    <glyph glyph-name="copyright" unicode="&#xa9;" horiz-adv-x="800" 
d="M33 357q0 164 108.5 270.5t258.5 106.5t258.5 -106.5t108.5 -270.5t-108.5 -270.5t-258.5 -106.5t-258.5 106.5t-108.5 270.5zM121 357q0 -128 80.5 -211.5t198.5 -83.5q117 0 198 83.5t81 211.5t-81 211.5t-198 83.5q-118 0 -198.5 -83.5t-80.5 -211.5zM504 292h81
q-13 -74 -61.5 -117t-115.5 -43q-94 0 -151.5 64.5t-57.5 162.5q0 100 55.5 163.5t150.5 63.5q69 0 118 -41t59 -115h-78q-6 37 -33 58.5t-70 21.5q-60 0 -93 -42t-33 -109q0 -64 35.5 -107.5t93.5 -43.5q42 0 68.5 22t31.5 62z" />
    <glyph glyph-name="ordfeminine" unicode="&#xaa;" horiz-adv-x="458" 
d="M396 601v-151q0 -18 21 -18q22 0 29 1v-58q-42 -7 -64 -7q-58 0 -68 41q-49 -41 -161 -41q-67 0 -104 26.5t-37 73.5q0 25 11.5 43.5t25.5 28t39.5 16t39.5 8.5t39 4q100 9 120.5 14t20.5 24q0 46 -96 46q-90 0 -94 -55h-88q10 62 56 86.5t126 24.5q64 0 104.5 -10
t56 -29t19.5 -33t4 -35zM308 508v30q-35 -14 -112 -19q-51 -4 -70.5 -15.5t-19.5 -32.5q0 -50 72 -50q29 0 56 6.5t50.5 27.5t23.5 53z" />
    <glyph glyph-name="guillemotleft" unicode="&#xab;" horiz-adv-x="593" 
d="M76 218v128l188 141v-118l-118 -87l118 -85v-118zM315 218v128l188 141v-118l-118 -87l118 -85v-118z" />
    <glyph glyph-name="logicalnot" unicode="&#xac;" horiz-adv-x="600" 
d="M453 107v207h-406v100h506v-307h-100z" />
    <glyph glyph-name="registered" unicode="&#xae;" horiz-adv-x="800" 
d="M257 146v409h156q77 0 115.5 -28.5t38.5 -91.5q0 -99 -103 -110l110 -179h-82l-103 176h-56v-176h-76zM333 497v-117h71q43 0 65 11.5t22 49.5q0 56 -86 56h-72zM33 357q0 164 108.5 270.5t258.5 106.5t258.5 -106.5t108.5 -270.5t-108.5 -270.5t-258.5 -106.5
t-258.5 106.5t-108.5 270.5zM121 357q0 -128 80.5 -211.5t198.5 -83.5q117 0 198 83.5t81 211.5t-81 211.5t-198 83.5q-118 0 -198.5 -83.5t-80.5 -211.5z" />
    <glyph glyph-name="macron" unicode="&#xaf;" horiz-adv-x="241" 
d="M-98 631v88h437v-88h-437z" />
    <glyph glyph-name="degree" unicode="&#xb0;" horiz-adv-x="400" 
d="M57 565q0 60 41.5 101.5t101.5 41.5t101.5 -41.5t41.5 -101.5t-41.5 -101.5t-101.5 -41.5t-101.5 41.5t-41.5 101.5zM119 565q0 -34 23.5 -57.5t57.5 -23.5t57.5 23.5t23.5 57.5t-23.5 57.5t-57.5 23.5t-57.5 -23.5t-23.5 -57.5z" />
    <glyph glyph-name="plusminus" unicode="&#xb1;" horiz-adv-x="600" 
d="M47 272v88h209v146h88v-146h209v-88h-209v-146h-88v146h-209zM47 0v88h506v-88h-506z" />
    <glyph glyph-name="twosuperior" unicode="&#xb2;" horiz-adv-x="482" 
d="M441 286h-409q0 58 31.5 99.5t76.5 63t90 38.5t76.5 37t31.5 46q0 31 -27.5 46.5t-59.5 15.5q-48 0 -75.5 -22.5t-31.5 -61.5h-112q0 79 55.5 119.5t147.5 40.5q101 0 158 -34.5t57 -97.5q0 -42 -23 -72.5t-59 -47t-73 -28.5t-71.5 -27t-47.5 -33h265v-82z" />
    <glyph glyph-name="threesuperior" unicode="&#xb3;" horiz-adv-x="482" 
d="M187 469v70h58q78 0 78 41q0 20 -24 36t-71 16q-41 0 -63.5 -20t-24.5 -46h-100q6 75 62 108.5t140 33.5q99 0 143 -34.5t44 -87.5q0 -24 -17 -45t-53 -31v-2q41 -9 65.5 -35t24.5 -61q0 -21 -7.5 -41t-27.5 -44t-66.5 -38.5t-113.5 -14.5q-40 0 -74 6.5t-65 22.5
t-49.5 46.5t-18.5 73.5h100q3 -38 32.5 -55.5t71.5 -17.5q44 0 75 17t31 44q0 22 -21.5 40t-77.5 18h-51z" />
    <glyph glyph-name="acute" unicode="&#xb4;" horiz-adv-x="241" 
d="M37 603l89 142h170l-140 -142h-119z" />
    <glyph glyph-name="mu" unicode="&#xb5;" horiz-adv-x="686" 
d="M56 -202v732h138v-302q0 -70 27.5 -106t109.5 -36q57 0 109 38.5t52 114.5v291h138v-530h-138v74h-2q-34 -43 -86 -68.5t-103 -25.5q-33 0 -63.5 11.5t-43.5 26.5v-220h-138z" />
    <glyph glyph-name="paragraph" unicode="&#xb6;" horiz-adv-x="600" 
d="M237 -190v526q-99 1 -157.5 52t-58.5 137q0 189 236 189h283v-904h-100v816h-103v-816h-100z" />
    <glyph glyph-name="periodcentered" unicode="&#xb7;" horiz-adv-x="352" 
d="M87 291q0 36 26.5 62.5t62.5 26.5q35 0 62 -26.5t27 -62.5q0 -35 -27 -62t-62 -27q-36 0 -62.5 27t-26.5 62z" />
    <glyph glyph-name="cedilla" unicode="&#xb8;" horiz-adv-x="241" 
d="M38 -82l51 82h57l-32 -51q3 0 13.5 1.5t15.5 1.5q101 0 101 -72q0 -40 -37.5 -61t-92.5 -21q-60 0 -117 15l15 44q52 -13 72 -13q54 0 54 31q0 14 -11 22.5t-26 8.5q-21 0 -45 -8z" />
    <glyph glyph-name="onesuperior" unicode="&#xb9;" horiz-adv-x="325" 
d="M135 286v270h-129v76h27q115 0 131 76h77v-422h-106z" />
    <glyph glyph-name="ordmasculine" unicode="&#xba;" horiz-adv-x="469" 
d="M121 539q0 -41 28.5 -71t85.5 -30q56 0 84.5 30t28.5 71q0 40 -28.5 69.5t-84.5 29.5t-85 -29.5t-29 -69.5zM21 539q0 71 53 120t161 49t160.5 -48.5t52.5 -120.5q0 -73 -52.5 -122t-160.5 -49t-161 49t-53 122z" />
    <glyph glyph-name="guillemotright" unicode="&#xbb;" horiz-adv-x="593" 
d="M517 346v-128l-188 -140v118l118 86l-118 84v118zM278 346v-128l-188 -140v118l118 86l-118 84v118z" />
    <glyph glyph-name="onequarter" unicode="&#xbc;" horiz-adv-x="1111" 
d="M897 171v163l-163 -163h163zM635 89v79l247 254h121v-251h72v-82h-72v-89h-106v89h-262zM247 -16l417 724h94l-417 -724h-94zM135 286v270h-129v76h27q115 0 131 76h77v-422h-106z" />
    <glyph glyph-name="onehalf" unicode="&#xbd;" horiz-adv-x="1111" 
d="M207 -16l417 724h94l-417 -724h-94zM135 286v270h-129v76h27q115 0 131 76h77v-422h-106zM1041 0h-409q0 58 31.5 99.5t76.5 63t90 38.5t76.5 37t31.5 46q0 31 -27.5 46.5t-59.5 15.5q-48 0 -75.5 -22.5t-31.5 -61.5h-112q0 79 55.5 119.5t147.5 40.5q101 0 158 -34.5
t57 -97.5q0 -42 -23 -72.5t-59 -47t-73 -28.5t-71.5 -27t-47.5 -33h265v-82z" />
    <glyph glyph-name="threequarters" unicode="&#xbe;" horiz-adv-x="1111" 
d="M897 171v163l-163 -163h163zM635 89v79l247 254h121v-251h72v-82h-72v-89h-106v89h-262zM187 469v70h58q78 0 78 41q0 20 -24 36t-71 16q-41 0 -63.5 -20t-24.5 -46h-100q6 75 62 108.5t140 33.5q99 0 143 -34.5t44 -87.5q0 -24 -17 -45t-53 -31v-2q41 -9 65.5 -35
t24.5 -61q0 -21 -7.5 -41t-27.5 -44t-66.5 -38.5t-113.5 -14.5q-40 0 -74 6.5t-65 22.5t-49.5 46.5t-18.5 73.5h100q3 -38 32.5 -55.5t71.5 -17.5q44 0 75 17t31 44q0 22 -21.5 40t-77.5 18h-51zM307 -16l417 726h94l-417 -726h-94z" />
    <glyph glyph-name="questiondown" unicode="&#xbf;" horiz-adv-x="704" 
d="M304 322h138v-16q0 -38 -16.5 -69t-41.5 -50t-54.5 -38.5t-54.5 -36t-41.5 -42.5t-16.5 -57q0 -55 45 -79t104 -24t103.5 33t45.5 104h144q-5 -118 -80.5 -180.5t-217.5 -62.5q-80 0 -140 19.5t-92 52.5t-47 69.5t-15 76.5q0 49 24.5 87.5t59.5 62.5t69.5 45t59 47.5
t24.5 57.5zM295 388v142h156v-142h-156z" />
    <glyph glyph-name="Agrave" unicode="&#xc0;" horiz-adv-x="796" 
d="M272 289h246l-122 301zM-9 0l318 714h178l318 -714h-167l-75 177h-336l-74 -177h-162zM393 901l89 -142h-119l-140 142h170z" />
    <glyph glyph-name="Aacute" unicode="&#xc1;" horiz-adv-x="796" 
d="M272 289h246l-122 301zM-9 0l318 714h178l318 -714h-167l-75 177h-336l-74 -177h-162zM315 759l89 142h170l-140 -142h-119z" />
    <glyph glyph-name="Acircumflex" unicode="&#xc2;" horiz-adv-x="796" 
d="M272 289h246l-122 301zM-9 0l318 714h178l318 -714h-167l-75 177h-336l-74 -177h-162zM482 901l138 -142h-138l-84 83l-83 -83h-138l138 142h167z" />
    <glyph glyph-name="Atilde" unicode="&#xc3;" horiz-adv-x="796" 
d="M272 289h246l-122 301zM-9 0l318 714h178l318 -714h-167l-75 177h-336l-74 -177h-162zM249 760h-73q24 130 139 130q27 0 95 -22t91 -22q22 0 31.5 10t16.5 34h72q-12 -63 -30 -90q-29 -42 -91 -42q-35 0 -109.5 22t-93.5 22q-36 0 -48 -42z" />
    <glyph glyph-name="Adieresis" unicode="&#xc4;" horiz-adv-x="796" 
d="M272 289h246l-122 301zM-9 0l318 714h178l318 -714h-167l-75 177h-336l-74 -177h-162zM199 759v112h138v-112h-138zM460 759v112h138v-112h-138z" />
    <glyph glyph-name="Aring" unicode="&#xc5;" horiz-adv-x="796" 
d="M272 289h246l-122 301zM-9 0l318 714h178l318 -714h-167l-75 177h-336l-74 -177h-162zM278 857q0 50 35.5 85.5t85.5 35.5t85.5 -35.5t35.5 -85.5t-35.5 -85.5t-85.5 -35.5t-85.5 35.5t-35.5 85.5zM336 857q0 -26 18.5 -44.5t44.5 -18.5t44.5 18.5t18.5 44.5t-18.5 44.5
t-44.5 18.5t-44.5 -18.5t-18.5 -44.5z" />
    <glyph glyph-name="AE" unicode="&#xc6;" horiz-adv-x="1130" 
d="M-23 0l419 714h687v-112h-414v-180h402v-112h-402v-198h421v-112h-559v186h-281l-111 -186h-162zM531 292v310h-48l-175 -310h223z" />
    <glyph glyph-name="Ccedilla" unicode="&#xc7;" horiz-adv-x="870" 
d="M660 273h162q-8 -55 -30 -102t-63.5 -90t-113 -69.5t-166.5 -30.5l-20 -32q3 0 13.5 1.5t15.5 1.5q101 0 101 -72q0 -40 -37.5 -61t-92.5 -21q-60 0 -117 15l15 44q52 -13 72 -13q54 0 54 31q0 14 -11 22.5t-26 8.5q-21 0 -45 -8l-18 20l39 63q-117 5 -200 58.5
t-121 135.5t-38 182q0 78 23.5 144.5t70 119t125 83t180.5 30.5q176 0 276.5 -80.5t113.5 -203.5h-162q-11 80 -73 126t-157 46q-108 0 -174.5 -71.5t-66.5 -206.5q0 -112 70 -182t181 -70q55 0 97.5 17t67 46t37.5 57.5t18 60.5z" />
    <glyph glyph-name="Egrave" unicode="&#xc8;" horiz-adv-x="741" 
d="M73 0v714h620v-112h-470v-180h451v-112h-451v-198h478v-112h-628zM365 901l89 -142h-119l-140 142h170z" />
    <glyph glyph-name="Eacute" unicode="&#xc9;" horiz-adv-x="741" 
d="M73 0v714h620v-112h-470v-180h451v-112h-451v-198h478v-112h-628zM287 759l89 142h170l-140 -142h-119z" />
    <glyph glyph-name="Ecircumflex" unicode="&#xca;" horiz-adv-x="741" 
d="M73 0v714h620v-112h-470v-180h451v-112h-451v-198h478v-112h-628zM454 901l138 -142h-138l-84 83l-83 -83h-138l138 142h167z" />
    <glyph glyph-name="Edieresis" unicode="&#xcb;" horiz-adv-x="741" 
d="M73 0v714h620v-112h-470v-180h451v-112h-451v-198h478v-112h-628zM171 759v112h138v-112h-138zM432 759v112h138v-112h-138z" />
    <glyph glyph-name="Igrave" unicode="&#xcc;" horiz-adv-x="296" 
d="M73 0v714h150v-714h-150zM143 901l89 -142h-119l-140 142h170z" />
    <glyph glyph-name="Iacute" unicode="&#xcd;" horiz-adv-x="296" 
d="M73 0v714h150v-714h-150zM65 759l89 142h170l-140 -142h-119z" />
    <glyph glyph-name="Icircumflex" unicode="&#xce;" horiz-adv-x="296" 
d="M73 0v714h150v-714h-150zM232 901l138 -142h-138l-84 83l-83 -83h-138l138 142h167z" />
    <glyph glyph-name="Idieresis" unicode="&#xcf;" horiz-adv-x="296" 
d="M73 0v714h150v-714h-150zM-51 759v112h138v-112h-138zM210 759v112h138v-112h-138z" />
    <glyph glyph-name="Eth" unicode="&#xd0;" horiz-adv-x="852" 
d="M73 0v316h-73v106h73v292h403q331 0 331 -364q0 -49 -9 -95.5t-31.5 -94t-57 -82t-90 -56.5t-125.5 -22h-421zM223 316v-204h244q30 0 59 9.5t60.5 33.5t51 75.5t19.5 125.5q0 68 -18 117.5t-41 73.5t-58.5 37.5t-57 15.5t-50.5 2h-209v-180h197v-106h-197z" />
    <glyph glyph-name="Ntilde" unicode="&#xd1;" horiz-adv-x="889" 
d="M73 0v714h172l425 -536h2v536h144v-714h-169l-428 536h-2v-536h-144zM295 760h-73q24 130 139 130q27 0 95 -22t91 -22q22 0 31.5 10t16.5 34h72q-12 -63 -30 -90q-29 -42 -91 -42q-35 0 -109.5 22t-93.5 22q-36 0 -48 -42z" />
    <glyph glyph-name="Ograve" unicode="&#xd2;" horiz-adv-x="906" 
d="M453 -20q-110 0 -192.5 30t-131 83.5t-72.5 119.5t-24 144t24 144t72.5 119.5t131 83.5t192.5 30t192.5 -30t131 -83.5t72.5 -119.5t24 -144t-24 -144t-72.5 -119.5t-131 -83.5t-192.5 -30zM453 92q124 0 194 72.5t70 192.5t-70 192.5t-194 72.5t-194 -72.5t-70 -192.5
t70 -192.5t194 -72.5zM448 901l89 -142h-119l-140 142h170z" />
    <glyph glyph-name="Oacute" unicode="&#xd3;" horiz-adv-x="906" 
d="M453 -20q-110 0 -192.5 30t-131 83.5t-72.5 119.5t-24 144t24 144t72.5 119.5t131 83.5t192.5 30t192.5 -30t131 -83.5t72.5 -119.5t24 -144t-24 -144t-72.5 -119.5t-131 -83.5t-192.5 -30zM453 92q124 0 194 72.5t70 192.5t-70 192.5t-194 72.5t-194 -72.5t-70 -192.5
t70 -192.5t194 -72.5zM370 759l89 142h170l-140 -142h-119z" />
    <glyph glyph-name="Ocircumflex" unicode="&#xd4;" horiz-adv-x="906" 
d="M453 -20q-110 0 -192.5 30t-131 83.5t-72.5 119.5t-24 144t24 144t72.5 119.5t131 83.5t192.5 30t192.5 -30t131 -83.5t72.5 -119.5t24 -144t-24 -144t-72.5 -119.5t-131 -83.5t-192.5 -30zM453 92q124 0 194 72.5t70 192.5t-70 192.5t-194 72.5t-194 -72.5t-70 -192.5
t70 -192.5t194 -72.5zM537 901l138 -142h-138l-84 83l-83 -83h-138l138 142h167z" />
    <glyph glyph-name="Otilde" unicode="&#xd5;" horiz-adv-x="906" 
d="M453 -20q-110 0 -192.5 30t-131 83.5t-72.5 119.5t-24 144t24 144t72.5 119.5t131 83.5t192.5 30t192.5 -30t131 -83.5t72.5 -119.5t24 -144t-24 -144t-72.5 -119.5t-131 -83.5t-192.5 -30zM453 92q124 0 194 72.5t70 192.5t-70 192.5t-194 72.5t-194 -72.5t-70 -192.5
t70 -192.5t194 -72.5zM304 760h-73q24 130 139 130q27 0 95 -22t91 -22q22 0 31.5 10t16.5 34h72q-12 -63 -30 -90q-29 -42 -91 -42q-35 0 -109.5 22t-93.5 22q-36 0 -48 -42z" />
    <glyph glyph-name="Odieresis" unicode="&#xd6;" horiz-adv-x="906" 
d="M453 -20q-110 0 -192.5 30t-131 83.5t-72.5 119.5t-24 144t24 144t72.5 119.5t131 83.5t192.5 30t192.5 -30t131 -83.5t72.5 -119.5t24 -144t-24 -144t-72.5 -119.5t-131 -83.5t-192.5 -30zM453 92q124 0 194 72.5t70 192.5t-70 192.5t-194 72.5t-194 -72.5t-70 -192.5
t70 -192.5t194 -72.5zM254 759v112h138v-112h-138zM515 759v112h138v-112h-138z" />
    <glyph glyph-name="multiply" unicode="&#xd7;" horiz-adv-x="600" 
d="M300 186l-166 -165l-71 71l165 165l-165 166l70 71l167 -166l167 166l70 -71l-165 -166l165 -165l-71 -71z" />
    <glyph glyph-name="Oslash" unicode="&#xd8;" horiz-adv-x="906" 
d="M232 199l403 362q-69 61 -182 61q-124 0 -194 -72.5t-70 -192.5q0 -93 43 -158zM675 514l-403 -361q67 -61 181 -61q124 0 194 72.5t70 192.5q0 93 -42 157zM31 19l92 82q-90 99 -90 256q0 78 24 144t72.5 119.5t131 83.5t192.5 30q180 0 285 -81l97 87l40 -46l-91 -82
q89 -98 89 -255q0 -78 -24 -144t-72.5 -119.5t-131 -83.5t-192.5 -30q-178 0 -285 80l-98 -88z" />
    <glyph glyph-name="Ugrave" unicode="&#xd9;" horiz-adv-x="833" 
d="M67 307v407h150v-403q0 -39 2 -62t12.5 -57t30 -52.5t59 -33t95.5 -14.5q41 0 73 7.5t52.5 18t35.5 30t22.5 35.5t11.5 41.5t4.5 42.5t0.5 44v403h150v-407q0 -34 -1 -56t-8 -60t-19.5 -63t-38.5 -55.5t-62 -49t-92.5 -31t-128.5 -12.5q-71 0 -127.5 12.5t-92.5 31
t-62 49t-38.5 55.5t-19.5 63t-8 60t-1 56zM411 901l89 -142h-119l-140 142h170z" />
    <glyph glyph-name="Uacute" unicode="&#xda;" horiz-adv-x="833" 
d="M67 307v407h150v-403q0 -39 2 -62t12.5 -57t30 -52.5t59 -33t95.5 -14.5q41 0 73 7.5t52.5 18t35.5 30t22.5 35.5t11.5 41.5t4.5 42.5t0.5 44v403h150v-407q0 -34 -1 -56t-8 -60t-19.5 -63t-38.5 -55.5t-62 -49t-92.5 -31t-128.5 -12.5q-71 0 -127.5 12.5t-92.5 31
t-62 49t-38.5 55.5t-19.5 63t-8 60t-1 56zM333 759l89 142h170l-140 -142h-119z" />
    <glyph glyph-name="Ucircumflex" unicode="&#xdb;" horiz-adv-x="833" 
d="M67 307v407h150v-403q0 -39 2 -62t12.5 -57t30 -52.5t59 -33t95.5 -14.5q41 0 73 7.5t52.5 18t35.5 30t22.5 35.5t11.5 41.5t4.5 42.5t0.5 44v403h150v-407q0 -34 -1 -56t-8 -60t-19.5 -63t-38.5 -55.5t-62 -49t-92.5 -31t-128.5 -12.5q-71 0 -127.5 12.5t-92.5 31
t-62 49t-38.5 55.5t-19.5 63t-8 60t-1 56zM500 901l138 -142h-138l-84 83l-83 -83h-138l138 142h167z" />
    <glyph glyph-name="Udieresis" unicode="&#xdc;" horiz-adv-x="833" 
d="M67 307v407h150v-403q0 -39 2 -62t12.5 -57t30 -52.5t59 -33t95.5 -14.5q41 0 73 7.5t52.5 18t35.5 30t22.5 35.5t11.5 41.5t4.5 42.5t0.5 44v403h150v-407q0 -34 -1 -56t-8 -60t-19.5 -63t-38.5 -55.5t-62 -49t-92.5 -31t-128.5 -12.5q-71 0 -127.5 12.5t-92.5 31
t-62 49t-38.5 55.5t-19.5 63t-8 60t-1 56zM217 759v112h138v-112h-138zM478 759v112h138v-112h-138z" />
    <glyph glyph-name="Yacute" unicode="&#xdd;" horiz-adv-x="760" 
d="M305 0v272l-312 442h183l204 -318l204 318h183l-312 -442v-272h-150zM297 759l89 142h170l-140 -142h-119z" />
    <glyph glyph-name="Thorn" unicode="&#xde;" horiz-adv-x="778" 
d="M223 473v-218h241q67 0 99 23.5t32 84.5q0 110 -120 110h-252zM73 0v714h150v-129h290q122 0 177 -62.5t55 -159.5q0 -90 -58.5 -155t-171.5 -65h-292v-143h-150z" />
    <glyph glyph-name="germandbls" unicode="&#xdf;" horiz-adv-x="704" 
d="M194 478v-478h-138v526q0 45 15.5 80.5t42 59t63.5 39.5t77.5 22.5t87.5 6.5q49 0 94 -8.5t89 -28t70.5 -59.5t26.5 -96q0 -43 -23 -80.5t-77 -55.5v-2q58 -10 97.5 -56t39.5 -125q0 -113 -75.5 -174t-209.5 -61q-60 0 -92 12v100q32 -6 72 -6q161 0 161 129
q0 122 -162 122h-61v94h60q55 0 90.5 22t35.5 71t-36.5 72.5t-96.5 23.5q-49 0 -81 -11t-46.5 -34t-19 -46t-4.5 -59z" />
    <glyph glyph-name="agrave" unicode="&#xe0;" horiz-adv-x="704" 
d="M625 372v-251q0 -30 30 -30q29 0 45 3v-97q-65 -12 -98 -12q-31 0 -53 7t-32 20t-13.5 21t-5.5 20q-76 -73 -249 -73q-103 0 -159.5 44t-56.5 122q0 30 9 54.5t22 41t35.5 29t40 19.5t46.5 12t43.5 7t41.5 4q53 5 85 8.5t59 8t40 8.5t22 10.5t11 13.5t2 18q0 76 -150 76
q-138 0 -145 -88h-135q14 99 84.5 140.5t195.5 41.5q79 0 135.5 -12.5t85 -29.5t44 -44.5t18 -46t2.5 -45.5zM487 213v51q-28 -12 -63 -18t-118 -15q-75 -9 -102 -27t-27 -53q0 -83 111 -83q31 0 62.5 6.5t64 21.5t52.5 45.5t20 71.5zM347 745l89 -142h-119l-140 142h170z
" />
    <glyph glyph-name="aacute" unicode="&#xe1;" horiz-adv-x="704" 
d="M625 372v-251q0 -30 30 -30q29 0 45 3v-97q-65 -12 -98 -12q-31 0 -53 7t-32 20t-13.5 21t-5.5 20q-76 -73 -249 -73q-103 0 -159.5 44t-56.5 122q0 30 9 54.5t22 41t35.5 29t40 19.5t46.5 12t43.5 7t41.5 4q53 5 85 8.5t59 8t40 8.5t22 10.5t11 13.5t2 18q0 76 -150 76
q-138 0 -145 -88h-135q14 99 84.5 140.5t195.5 41.5q79 0 135.5 -12.5t85 -29.5t44 -44.5t18 -46t2.5 -45.5zM487 213v51q-28 -12 -63 -18t-118 -15q-75 -9 -102 -27t-27 -53q0 -83 111 -83q31 0 62.5 6.5t64 21.5t52.5 45.5t20 71.5zM269 603l89 142h170l-140 -142h-119z
" />
    <glyph glyph-name="acircumflex" unicode="&#xe2;" horiz-adv-x="704" 
d="M625 372v-251q0 -30 30 -30q29 0 45 3v-97q-65 -12 -98 -12q-31 0 -53 7t-32 20t-13.5 21t-5.5 20q-76 -73 -249 -73q-103 0 -159.5 44t-56.5 122q0 30 9 54.5t22 41t35.5 29t40 19.5t46.5 12t43.5 7t41.5 4q53 5 85 8.5t59 8t40 8.5t22 10.5t11 13.5t2 18q0 76 -150 76
q-138 0 -145 -88h-135q14 99 84.5 140.5t195.5 41.5q79 0 135.5 -12.5t85 -29.5t44 -44.5t18 -46t2.5 -45.5zM487 213v51q-28 -12 -63 -18t-118 -15q-75 -9 -102 -27t-27 -53q0 -83 111 -83q31 0 62.5 6.5t64 21.5t52.5 45.5t20 71.5zM436 745l138 -142h-138l-84 83l-83 -83
h-138l138 142h167z" />
    <glyph glyph-name="atilde" unicode="&#xe3;" horiz-adv-x="704" 
d="M625 372v-251q0 -30 30 -30q29 0 45 3v-97q-65 -12 -98 -12q-31 0 -53 7t-32 20t-13.5 21t-5.5 20q-76 -73 -249 -73q-103 0 -159.5 44t-56.5 122q0 30 9 54.5t22 41t35.5 29t40 19.5t46.5 12t43.5 7t41.5 4q53 5 85 8.5t59 8t40 8.5t22 10.5t11 13.5t2 18q0 76 -150 76
q-138 0 -145 -88h-135q14 99 84.5 140.5t195.5 41.5q79 0 135.5 -12.5t85 -29.5t44 -44.5t18 -46t2.5 -45.5zM487 213v51q-28 -12 -63 -18t-118 -15q-75 -9 -102 -27t-27 -53q0 -83 111 -83q31 0 62.5 6.5t64 21.5t52.5 45.5t20 71.5zM203 604h-73q24 130 139 130
q27 0 95 -22t91 -22q22 0 31.5 10t16.5 34h72q-12 -63 -30 -90q-29 -42 -91 -42q-35 0 -109.5 22t-93.5 22q-36 0 -48 -42z" />
    <glyph glyph-name="adieresis" unicode="&#xe4;" horiz-adv-x="704" 
d="M625 372v-251q0 -30 30 -30q29 0 45 3v-97q-65 -12 -98 -12q-31 0 -53 7t-32 20t-13.5 21t-5.5 20q-76 -73 -249 -73q-103 0 -159.5 44t-56.5 122q0 30 9 54.5t22 41t35.5 29t40 19.5t46.5 12t43.5 7t41.5 4q53 5 85 8.5t59 8t40 8.5t22 10.5t11 13.5t2 18q0 76 -150 76
q-138 0 -145 -88h-135q14 99 84.5 140.5t195.5 41.5q79 0 135.5 -12.5t85 -29.5t44 -44.5t18 -46t2.5 -45.5zM487 213v51q-28 -12 -63 -18t-118 -15q-75 -9 -102 -27t-27 -53q0 -83 111 -83q31 0 62.5 6.5t64 21.5t52.5 45.5t20 71.5zM153 603v112h138v-112h-138zM414 603
v112h138v-112h-138z" />
    <glyph glyph-name="aring" unicode="&#xe5;" horiz-adv-x="704" 
d="M625 372v-251q0 -30 30 -30q29 0 45 3v-97q-65 -12 -98 -12q-31 0 -53 7t-32 20t-13.5 21t-5.5 20q-76 -73 -249 -73q-103 0 -159.5 44t-56.5 122q0 30 9 54.5t22 41t35.5 29t40 19.5t46.5 12t43.5 7t41.5 4q53 5 85 8.5t59 8t40 8.5t22 10.5t11 13.5t2 18q0 76 -150 76
q-138 0 -145 -88h-135q14 99 84.5 140.5t195.5 41.5q79 0 135.5 -12.5t85 -29.5t44 -44.5t18 -46t2.5 -45.5zM487 213v51q-28 -12 -63 -18t-118 -15q-75 -9 -102 -27t-27 -53q0 -83 111 -83q31 0 62.5 6.5t64 21.5t52.5 45.5t20 71.5zM232 701q0 50 35.5 85.5t85.5 35.5
t85.5 -35.5t35.5 -85.5t-35.5 -85.5t-85.5 -35.5t-85.5 35.5t-35.5 85.5zM290 701q0 -26 18.5 -44.5t44.5 -18.5t44.5 18.5t18.5 44.5t-18.5 44.5t-44.5 18.5t-44.5 -18.5t-18.5 -44.5z" />
    <glyph glyph-name="ae" unicode="&#xe6;" horiz-adv-x="1111" 
d="M190 368h-132q3 50 27.5 87t64 57t84 29t96.5 9q177 0 236 -74q73 74 210 74q135 0 215.5 -79.5t80.5 -221.5v-19h-472q0 -81 45.5 -118.5t121.5 -37.5q38 0 67 8t47.5 23.5t26 24.5t18.5 26h138q-6 -14 -9 -20.5t-16 -28t-26 -35t-38 -33t-53 -31t-69.5 -20t-89.5 -8.5
q-152 0 -229 104q-26 -27 -50 -45.5t-85.5 -38.5t-140.5 -20q-35 0 -68.5 6.5t-71.5 22.5t-61.5 53t-23.5 89q0 38 14.5 66t37.5 45t61.5 28t74.5 16t88 8q120 8 145.5 16.5t25.5 47.5q0 78 -134 78q-29 0 -50.5 -2.5t-47 -10.5t-40.5 -27t-18 -48zM600 318h334
q-5 59 -49.5 98.5t-114.5 39.5t-116.5 -34t-53.5 -104zM482 227v25q-32 -10 -228 -32q-83 -9 -83 -73q0 -41 36 -57t80 -16q86 0 140.5 36.5t54.5 116.5z" />
    <glyph glyph-name="ccedilla" unicode="&#xe7;" horiz-adv-x="685" 
d="M511 203h144q-8 -52 -30 -92.5t-53 -63.5t-61 -38t-65 -20.5t-52 -7t-33 -1.5h-5l-20 -31q3 0 13.5 1.5t15.5 1.5q101 0 101 -72q0 -40 -37.5 -61t-92.5 -21q-60 0 -117 15l15 44q52 -13 72 -13q54 0 54 31q0 14 -11 22.5t-26 8.5q-21 0 -45 -8l-18 20l41 66
q-136 15 -202 93.5t-66 187.5q0 130 88 207.5t240 77.5q29 0 59 -4t69.5 -17.5t71 -34.5t57.5 -60t34 -90h-144q-8 42 -48.5 71t-98.5 29q-90 0 -137 -52t-47 -127q0 -76 42.5 -127.5t126.5 -51.5q75 0 108 27t57 90z" />
    <glyph glyph-name="egrave" unicode="&#xe8;" 
d="M683 230h-500q1 -25 10.5 -49t29 -48t55.5 -38.5t85 -14.5q64 0 99.5 19.5t58.5 56.5h150q-89 -176 -304 -176q-86 0 -151.5 23.5t-103 64t-55.5 89t-18 103.5q0 132 88.5 211t230.5 79q85 0 149.5 -24.5t101.5 -67.5t55.5 -95.5t18.5 -112.5v-20zM183 318h356
q-12 72 -64.5 105t-114.5 33q-59 0 -110 -32.5t-67 -105.5zM356 745l89 -142h-119l-140 142h170z" />
    <glyph glyph-name="eacute" unicode="&#xe9;" 
d="M683 230h-500q1 -25 10.5 -49t29 -48t55.5 -38.5t85 -14.5q64 0 99.5 19.5t58.5 56.5h150q-89 -176 -304 -176q-86 0 -151.5 23.5t-103 64t-55.5 89t-18 103.5q0 132 88.5 211t230.5 79q85 0 149.5 -24.5t101.5 -67.5t55.5 -95.5t18.5 -112.5v-20zM183 318h356
q-12 72 -64.5 105t-114.5 33q-59 0 -110 -32.5t-67 -105.5zM278 603l89 142h170l-140 -142h-119z" />
    <glyph glyph-name="ecircumflex" unicode="&#xea;" 
d="M683 230h-500q1 -25 10.5 -49t29 -48t55.5 -38.5t85 -14.5q64 0 99.5 19.5t58.5 56.5h150q-89 -176 -304 -176q-86 0 -151.5 23.5t-103 64t-55.5 89t-18 103.5q0 132 88.5 211t230.5 79q85 0 149.5 -24.5t101.5 -67.5t55.5 -95.5t18.5 -112.5v-20zM183 318h356
q-12 72 -64.5 105t-114.5 33q-59 0 -110 -32.5t-67 -105.5zM445 745l138 -142h-138l-84 83l-83 -83h-138l138 142h167z" />
    <glyph glyph-name="edieresis" unicode="&#xeb;" 
d="M683 230h-500q1 -25 10.5 -49t29 -48t55.5 -38.5t85 -14.5q64 0 99.5 19.5t58.5 56.5h150q-89 -176 -304 -176q-86 0 -151.5 23.5t-103 64t-55.5 89t-18 103.5q0 132 88.5 211t230.5 79q85 0 149.5 -24.5t101.5 -67.5t55.5 -95.5t18.5 -112.5v-20zM183 318h356
q-12 72 -64.5 105t-114.5 33q-59 0 -110 -32.5t-67 -105.5zM162 603v112h138v-112h-138zM423 603v112h138v-112h-138z" />
    <glyph glyph-name="igrave" unicode="&#xec;" horiz-adv-x="258" 
d="M60 0v530h138v-530h-138zM124 745l89 -142h-119l-140 142h170z" />
    <glyph glyph-name="iacute" unicode="&#xed;" horiz-adv-x="258" 
d="M60 0v530h138v-530h-138zM46 603l89 142h170l-140 -142h-119z" />
    <glyph glyph-name="icircumflex" unicode="&#xee;" horiz-adv-x="258" 
d="M60 0v530h138v-530h-138zM213 745l138 -142h-138l-84 83l-83 -83h-138l138 142h167z" />
    <glyph glyph-name="idieresis" unicode="&#xef;" horiz-adv-x="258" 
d="M60 0v530h138v-530h-138zM-70 603v112h138v-112h-138zM191 603v112h138v-112h-138z" />
    <glyph glyph-name="eth" unicode="&#xf0;" 
d="M361 86q94 0 139 50.5t45 124.5t-45 124.5t-139 50.5t-139 -50.5t-45 -124.5t45 -124.5t139 -50.5zM144 602l112 51q-42 22 -100 41l74 70q74 -18 149 -54l118 54l47 -43l-103 -47q52 -30 92 -63.5t77.5 -81.5t58 -113t20.5 -142q0 -58 -18.5 -109t-56 -93.5t-102.5 -67
t-151 -24.5q-165 0 -246.5 80.5t-81.5 194.5q0 112 76 193.5t220 81.5q99 0 148 -38l2 2q-50 66 -156 126l-132 -61z" />
    <glyph glyph-name="ntilde" unicode="&#xf1;" horiz-adv-x="686" 
d="M56 0v530h138v-80h2q74 94 209 94q46 0 84 -9t71 -29t51.5 -57.5t18.5 -88.5v-360h-138v316q0 122 -133 122q-64 0 -114.5 -38t-50.5 -115v-285h-138zM194 604h-73q24 130 139 130q27 0 95 -22t91 -22q22 0 31.5 10t16.5 34h72q-12 -63 -30 -90q-29 -42 -91 -42
q-35 0 -109.5 22t-93.5 22q-36 0 -48 -42z" />
    <glyph glyph-name="ograve" unicode="&#xf2;" 
d="M177 265q0 -77 45 -128t139 -51t139 51t45 128t-45 128t-139 51t-139 -51t-45 -128zM33 265q0 121 81 203t247 82t247 -82t81 -203t-81 -203t-247 -82t-247 82t-81 203zM356 745l89 -142h-119l-140 142h170z" />
    <glyph glyph-name="oacute" unicode="&#xf3;" 
d="M177 265q0 -77 45 -128t139 -51t139 51t45 128t-45 128t-139 51t-139 -51t-45 -128zM33 265q0 121 81 203t247 82t247 -82t81 -203t-81 -203t-247 -82t-247 82t-81 203zM278 603l89 142h170l-140 -142h-119z" />
    <glyph glyph-name="ocircumflex" unicode="&#xf4;" 
d="M177 265q0 -77 45 -128t139 -51t139 51t45 128t-45 128t-139 51t-139 -51t-45 -128zM33 265q0 121 81 203t247 82t247 -82t81 -203t-81 -203t-247 -82t-247 82t-81 203zM445 745l138 -142h-138l-84 83l-83 -83h-138l138 142h167z" />
    <glyph glyph-name="otilde" unicode="&#xf5;" 
d="M177 265q0 -77 45 -128t139 -51t139 51t45 128t-45 128t-139 51t-139 -51t-45 -128zM33 265q0 121 81 203t247 82t247 -82t81 -203t-81 -203t-247 -82t-247 82t-81 203zM212 604h-73q24 130 139 130q27 0 95 -22t91 -22q22 0 31.5 10t16.5 34h72q-12 -63 -30 -90
q-29 -42 -91 -42q-35 0 -109.5 22t-93.5 22q-36 0 -48 -42z" />
    <glyph glyph-name="odieresis" unicode="&#xf6;" 
d="M177 265q0 -77 45 -128t139 -51t139 51t45 128t-45 128t-139 51t-139 -51t-45 -128zM33 265q0 121 81 203t247 82t247 -82t81 -203t-81 -203t-247 -82t-247 82t-81 203zM162 603v112h138v-112h-138zM423 603v112h138v-112h-138z" />
    <glyph glyph-name="divide" unicode="&#xf7;" horiz-adv-x="600" 
d="M47 203v100h506v-100h-506zM216 47q0 35 25 59.5t59 24.5t59 -24.5t25 -59.5t-25 -59.5t-59 -24.5t-59 24.5t-25 59.5zM216 459q0 35 25 59.5t59 24.5t59 -24.5t25 -59.5t-25 -59.5t-59 -24.5t-59 24.5t-25 59.5z" />
    <glyph glyph-name="oslash" unicode="&#xf8;" 
d="M205 161l280 244q-46 39 -124 39q-94 0 -139 -51t-45 -128q0 -61 28 -104zM30 8l74 65q-71 75 -71 192q0 121 81 203t247 82q139 0 221 -61l77 68l33 -38l-73 -63q70 -74 70 -191q0 -121 -81 -203t-247 -82q-136 0 -219 60l-80 -70zM518 368l-280 -244q46 -38 123 -38
q94 0 139 51t45 128q0 60 -27 103z" />
    <glyph glyph-name="ugrave" unicode="&#xf9;" horiz-adv-x="686" 
d="M56 176v354h138v-302q0 -70 27.5 -106t109.5 -36q57 0 109 38.5t52 114.5v291h138v-530h-138v74h-2q-74 -94 -209 -94q-46 0 -84 9t-71 30.5t-51.5 61t-18.5 95.5zM338 745l89 -142h-119l-140 142h170z" />
    <glyph glyph-name="uacute" unicode="&#xfa;" horiz-adv-x="686" 
d="M56 176v354h138v-302q0 -70 27.5 -106t109.5 -36q57 0 109 38.5t52 114.5v291h138v-530h-138v74h-2q-74 -94 -209 -94q-46 0 -84 9t-71 30.5t-51.5 61t-18.5 95.5zM260 603l89 142h170l-140 -142h-119z" />
    <glyph glyph-name="ucircumflex" unicode="&#xfb;" horiz-adv-x="686" 
d="M56 176v354h138v-302q0 -70 27.5 -106t109.5 -36q57 0 109 38.5t52 114.5v291h138v-530h-138v74h-2q-74 -94 -209 -94q-46 0 -84 9t-71 30.5t-51.5 61t-18.5 95.5zM427 745l138 -142h-138l-84 83l-83 -83h-138l138 142h167z" />
    <glyph glyph-name="udieresis" unicode="&#xfc;" horiz-adv-x="686" 
d="M56 176v354h138v-302q0 -70 27.5 -106t109.5 -36q57 0 109 38.5t52 114.5v291h138v-530h-138v74h-2q-74 -94 -209 -94q-46 0 -84 9t-71 30.5t-51.5 61t-18.5 95.5zM144 603v112h138v-112h-138zM405 603v112h138v-112h-138z" />
    <glyph glyph-name="yacute" unicode="&#xfd;" horiz-adv-x="611" 
d="M237 9l-247 521h150l170 -379l166 379h147l-289 -624q-31 -68 -67.5 -88t-123.5 -20q-32 0 -86 2v106q22 -2 69 -2q60 0 80 41zM222 603l89 142h170l-140 -142h-119z" />
    <glyph glyph-name="thorn" unicode="&#xfe;" 
d="M366 438q-90 0 -134 -50.5t-44 -124.5q0 -75 44 -126t134 -51q91 0 135 51t44 126q0 74 -44 124.5t-135 50.5zM56 -202v928h138v-272h2q28 44 89.5 67t113.5 23q73 0 130 -25t91 -66t51.5 -89.5t17.5 -100.5q0 -53 -17.5 -102t-51.5 -90t-91 -66t-130 -25
q-75 0 -134.5 32t-68.5 61h-2v-275h-138z" />
    <glyph glyph-name="ydieresis" unicode="&#xff;" horiz-adv-x="611" 
d="M237 9l-247 521h150l170 -379l166 379h147l-289 -624q-31 -68 -67.5 -88t-123.5 -20q-32 0 -86 2v106q22 -2 69 -2q60 0 80 41zM106 603v112h138v-112h-138zM367 603v112h138v-112h-138z" />
    <glyph glyph-name="dotlessi" unicode="&#x131;" horiz-adv-x="258" 
d="M60 0v530h138v-530h-138z" />
    <glyph glyph-name="Lslash" unicode="&#x141;" horiz-adv-x="667" 
d="M73 0v200l-73 -58v112l73 58v402h150v-283l200 158v-112l-200 -158v-201h434v-118h-584z" />
    <glyph glyph-name="lslash" unicode="&#x142;" horiz-adv-x="258" 
d="M60 0v216h-2l-58 -78v106l60 78v404h138v-237h2l58 78v-106l-60 -78v-383h-138z" />
    <glyph glyph-name="OE" unicode="&#x152;" horiz-adv-x="1167" 
d="M577 227v282q0 8 -11 25t-31 37.5t-56 35.5t-78 15q-97 0 -154.5 -71.5t-57.5 -197.5q0 -50 11 -94.5t34.5 -83t65.5 -61t98 -22.5q78 0 128.5 48.5t50.5 86.5zM581 0v69h-2q-27 -37 -86 -63t-130 -26q-63 0 -120 22t-105 65.5t-76.5 119t-28.5 172.5q0 73 21 139.5
t61.5 119.5t105.5 84.5t147 31.5q81 0 134.5 -25.5t76.5 -59.5h2v65h529v-112h-395v-180h382v-112h-382v-198h402v-112h-536z" />
    <glyph glyph-name="oe" unicode="&#x153;" horiz-adv-x="1130" 
d="M1091 230h-463q2 -67 44 -111.5t120 -44.5q108 0 150 82h138q-7 -22 -22 -47t-46.5 -56.5t-89 -52t-131.5 -20.5q-153 0 -224 97q-80 -97 -234 -97q-136 0 -218 74t-82 213q0 55 17 104t52 90t95 65t139 24q164 0 235 -96q79 96 224 96q135 0 215.5 -79.5t80.5 -221.5
v-19zM171 271q0 -53 15 -91.5t40.5 -59.5t53.5 -30.5t60 -9.5q50 0 86.5 18t55 47t26.5 58.5t8 59.5q0 35 -9 66.5t-28.5 59.5t-55 44.5t-82.5 16.5q-66 0 -118 -43.5t-52 -135.5zM628 318h325q-5 59 -49.5 98.5t-114.5 39.5q-135 0 -161 -138z" />
    <glyph glyph-name="Scaron" unicode="&#x160;" horiz-adv-x="741" 
d="M35 513q0 113 87 167t228 54q41 0 77.5 -3.5t86.5 -17t86.5 -36.5t65 -67t33.5 -103h-162q-4 47 -48.5 81t-131.5 34q-78 0 -122 -24.5t-44 -73.5q0 -34 29.5 -54t76.5 -28.5t103.5 -14.5t113 -17.5t103.5 -31.5t76.5 -62t29.5 -104q0 -66 -31.5 -113.5t-84 -72
t-109 -35.5t-118.5 -11q-185 0 -272.5 66.5t-89.5 184.5h162q3 -69 57 -104t148 -35q76 0 126 25t50 80q0 36 -29 57.5t-75.5 31.5t-102.5 17t-112 18.5t-102.5 31t-75.5 60.5t-29 100zM592 901l-138 -142h-167l-138 142h138l83 -83l84 83h138z" />
    <glyph glyph-name="scaron" unicode="&#x161;" horiz-adv-x="648" 
d="M29 166h150q2 -37 29.5 -59t56 -27.5t60.5 -5.5q59 0 101.5 16.5t42.5 51.5q0 32 -31.5 46t-140.5 29q-57 8 -90 14t-68 17.5t-52.5 27.5t-28.5 41.5t-11 61.5q0 43 19.5 75.5t47.5 50t66.5 28.5t69 14t62.5 3t61.5 -2.5t72 -13t73.5 -28.5t54.5 -54t25.5 -84h-144
q-12 88 -150 88q-55 0 -87.5 -19t-32.5 -42t9.5 -33.5t38 -18t98.5 -17.5q42 -6 63 -9.5t54.5 -9.5t50.5 -12t40.5 -15t35 -19.5t23.5 -25t16.5 -33t4.5 -41.5q0 -95 -79.5 -138t-213.5 -43q-50 0 -94.5 7t-93 25t-78 57.5t-31.5 96.5zM546 745l-138 -142h-167l-138 142h138
l83 -83l84 83h138z" />
    <glyph glyph-name="Ydieresis" unicode="&#x178;" horiz-adv-x="760" 
d="M305 0v272l-312 442h183l204 -318l204 318h183l-312 -442v-272h-150zM181 759v112h138v-112h-138zM442 759v112h138v-112h-138z" />
    <glyph glyph-name="Zcaron" unicode="&#x17d;" 
d="M15 0v109l492 493h-458v112h655v-109l-487 -487h490v-118h-692zM583 901l-138 -142h-167l-138 142h138l83 -83l84 83h138z" />
    <glyph glyph-name="zcaron" unicode="&#x17e;" horiz-adv-x="611" 
d="M22 0v100l357 324h-338v106h535v-94l-364 -330h377v-106h-567zM527 745l-138 -142h-167l-138 142h138l83 -83l84 83h138z" />
    <glyph glyph-name="florin" unicode="&#x192;" horiz-adv-x="740" 
d="M154 314l16 76h126l39 181q17 81 67 109t141 28q1 0 88 -6l-19 -98q-38 4 -63 4q-24 0 -40.5 -7.5t-26 -24t-14 -31t-10.5 -41.5l-24 -114h130l-17 -76h-128l-67 -338q-20 -99 -65 -138.5t-145 -39.5q-12 0 -97 8l20 98q40 -6 56 -6q28 0 45.5 6.5t27.5 24.5t14.5 33
t11.5 48l61 304h-127z" />
    <glyph glyph-name="circumflex" unicode="&#x2c6;" horiz-adv-x="241" 
d="M204 745l138 -142h-138l-84 83l-83 -83h-138l138 142h167z" />
    <glyph glyph-name="caron" unicode="&#x2c7;" horiz-adv-x="241" 
d="M342 745l-138 -142h-167l-138 142h138l83 -83l84 83h138z" />
    <glyph glyph-name="breve" unicode="&#x2d8;" horiz-adv-x="241" 
d="M-69 745h82q2 -33 34.5 -48t79.5 -15q50 0 74 19.5t27 43.5h82q-4 -70 -52.5 -107.5t-135.5 -37.5q-180 0 -191 145z" />
    <glyph glyph-name="dotaccent" unicode="&#x2d9;" horiz-adv-x="241" 
d="M52 603v112h138v-112h-138z" />
    <glyph glyph-name="ring" unicode="&#x2da;" horiz-adv-x="241" 
d="M0 701q0 50 35.5 85.5t85.5 35.5t85.5 -35.5t35.5 -85.5t-35.5 -85.5t-85.5 -35.5t-85.5 35.5t-35.5 85.5zM58 701q0 -26 18.5 -44.5t44.5 -18.5t44.5 18.5t18.5 44.5t-18.5 44.5t-44.5 18.5t-44.5 -18.5t-18.5 -44.5z" />
    <glyph glyph-name="ogonek" unicode="&#x2db;" horiz-adv-x="241" 
d="M105 0h68q-98 -59 -98 -107q0 -21 14.5 -32t37.5 -11q42 0 74 14l12 -49q-49 -17 -105 -17q-109 0 -109 81q0 36 31.5 67.5t74.5 53.5z" />
    <glyph glyph-name="tilde" unicode="&#x2dc;" horiz-adv-x="241" 
d="M-29 604h-73q24 130 139 130q27 0 95 -22t91 -22q22 0 31.5 10t16.5 34h72q-12 -63 -30 -90q-29 -42 -91 -42q-35 0 -109.5 22t-93.5 22q-36 0 -48 -42z" />
    <glyph glyph-name="hungarumlaut" unicode="&#x2dd;" horiz-adv-x="241" 
d="M169 603l89 142h170l-140 -142h-119zM-92 603l89 142h170l-140 -142h-119z" />
    <glyph glyph-name="endash" unicode="&#x2013;" horiz-adv-x="500" 
d="M0 223v118h500v-118h-500z" />
    <glyph glyph-name="emdash" unicode="&#x2014;" horiz-adv-x="1000" 
d="M0 223v118h1000v-118h-1000z" />
    <glyph glyph-name="quoteleft" unicode="&#x2018;" horiz-adv-x="352" 
d="M254 547v-142h-156v108q0 180 156 201v-59q-43 -14 -57 -36.5t-17 -71.5h74z" />
    <glyph glyph-name="quoteright" unicode="&#x2019;" horiz-adv-x="352" 
d="M98 572v142h156v-108q0 -180 -156 -201v59q43 14 57 36.5t17 71.5h-74z" />
    <glyph glyph-name="quotesinglbase" unicode="&#x201a;" horiz-adv-x="352" 
d="M98 0v142h156v-108q0 -180 -156 -201v59q43 14 57 36.5t17 71.5h-74z" />
    <glyph glyph-name="quotedblleft" unicode="&#x201c;" horiz-adv-x="536" 
d="M224 547v-142h-156v108q0 180 156 201v-59q-43 -14 -57 -36.5t-17 -71.5h74zM468 547v-142h-156v108q0 180 156 201v-59q-43 -14 -57 -36.5t-17 -71.5h74z" />
    <glyph glyph-name="quotedblright" unicode="&#x201d;" horiz-adv-x="536" 
d="M312 572v142h156v-108q0 -180 -156 -201v59q43 14 57 36.5t17 71.5h-74zM68 572v142h156v-108q0 -180 -156 -201v59q43 14 57 36.5t17 71.5h-74z" />
    <glyph glyph-name="quotedblbase" unicode="&#x201e;" horiz-adv-x="536" 
d="M312 0v142h156v-108q0 -180 -156 -201v59q43 14 57 36.5t17 71.5h-74zM68 0v142h156v-108q0 -180 -156 -201v59q43 14 57 36.5t17 71.5h-74z" />
    <glyph glyph-name="dagger" unicode="&#x2020;" horiz-adv-x="740" 
d="M301 -190v570h-237v112h237v222h138v-222h237v-112h-237v-570h-138z" />
    <glyph glyph-name="daggerdbl" unicode="&#x2021;" horiz-adv-x="740" 
d="M301 -190v210h-237v106h237v267h-237v106h237v215h138v-215h237v-106h-237v-267h237v-106h-237v-210h-138z" />
    <glyph glyph-name="bullet" unicode="&#x2022;" horiz-adv-x="500" 
d="M72 357q0 74 52 126t126 52t126.5 -52t52.5 -126t-52.5 -126.5t-126.5 -52.5t-126 52.5t-52 126.5z" />
    <glyph glyph-name="ellipsis" unicode="&#x2026;" horiz-adv-x="1000" 
d="M89 0v142h156v-142h-156zM422 0v142h156v-142h-156zM755 0v142h156v-142h-156z" />
    <glyph glyph-name="perthousand" unicode="&#x2030;" horiz-adv-x="1167" 
d="M913 168q0 -114 76 -114t76 114t-76 114t-76 -114zM134 -16l417 724h94l-417 -724h-94zM102 524q0 -114 76 -114t76 114t-76 114t-76 -114zM819 168q0 88 43 136t127 48t127 -48t43 -136t-43 -136t-127 -48t-127 48t-43 136zM8 524q0 88 43 136t127 48t127 -48t43 -136
t-43 -136t-127 -48t-127 48t-43 136zM434 168q0 88 43 136t127 48t127 -48t43 -136t-43 -136t-127 -48t-127 48t-43 136zM528 168q0 -114 76 -114t76 114t-76 114t-76 -114z" />
    <glyph glyph-name="guilsinglleft" unicode="&#x2039;" horiz-adv-x="352" 
d="M76 218v128l188 140v-118l-118 -86l118 -84v-118z" />
    <glyph glyph-name="guilsinglright" unicode="&#x203a;" horiz-adv-x="352" 
d="M276 346v-128l-188 -140v118l118 86l-118 84v118z" />
    <glyph glyph-name="fraction" unicode="&#x2044;" horiz-adv-x="167" 
d="M-172 -16l417 724h94l-417 -724h-94z" />
    <glyph glyph-name="trademark" unicode="&#x2122;" horiz-adv-x="990" 
d="M149 302v342h-122v70h332v-70h-122v-342h-88zM833 302v312h-2l-117 -312h-62l-117 312h-2v-312h-82v412h124l109 -283l107 283h124v-412h-82z" />
    <glyph glyph-name="minus" unicode="&#x2212;" horiz-adv-x="600" 
d="M47 203v100h506v-100h-506z" />
    <glyph glyph-name="fi" unicode="&#xfb01;" horiz-adv-x="630" 
d="M432 0v530h138v-530h-138zM432 614v112h138v-112h-138zM98 0v430h-109v100h109v68q0 27 5 47t20 42.5t49 34.5t85 12q60 0 124 -4v-100q-30 4 -71 4q-46 0 -60 -13t-14 -50v-41h145v-100h-145v-430h-138z" />
    <glyph glyph-name="fl" unicode="&#xfb02;" horiz-adv-x="630" 
d="M432 0v726h138v-726h-138zM98 0v430h-109v100h109v68q0 27 5 47t20 42.5t49 34.5t85 12q60 0 124 -4v-100q-30 4 -71 4q-46 0 -60 -13t-14 -50v-41h145v-100h-145v-430h-138z" />
    </font>
</defs>
</svg>
