<?xml version="1.0" standalone="no"?>
<!DOCTYPE svg PUBLIC "-//W3C//DTD SVG 1.1//EN" "http://www.w3.org/Graphics/SVG/1.1/DTD/svg11.dtd" >
<svg xmlns="http://www.w3.org/2000/svg" xmlns:xlink="http://www.w3.org/1999/xlink" version="1.1">
<metadata>
Created by FontForge 20170731 at Mon Feb 13 21:55:14 2006
 By Aleksey,,,
Copyright (c) 1990 Adobe Systems Incorporated.  All Rights Reserved.Helvetica is a trademark of Linotype AG and/or its subsidiaries.
</metadata>
<defs>
<font id="HelveticaNeue-LightExt" horiz-adv-x="668" >
  <font-face 
    font-family="Helvetica Neue"
    font-weight="300"
    font-stretch="normal"
    units-per-em="1000"
    panose-1="0 0 0 0 0 0 0 0 0 0"
    ascent="800"
    descent="-200"
    x-height="520"
    cap-height="714"
    bbox="-160 -220 1161 953"
    underline-thickness="50"
    underline-position="-200"
    unicode-range="U+0020-FB02"
  />
<missing-glyph horiz-adv-x="278" 
 />
    <glyph glyph-name=".notdef" horiz-adv-x="278" 
 />
    <glyph glyph-name=".null" horiz-adv-x="0" 
 />
    <glyph glyph-name="nonmarkingreturn" horiz-adv-x="333" 
 />
    <glyph glyph-name="space" unicode=" " horiz-adv-x="278" 
 />
    <glyph glyph-name="exclam" unicode="!" horiz-adv-x="296" 
d="M105 0v110h86v-110h-86zM126 185l-18 340v189h80v-189l-18 -340h-44z" />
    <glyph glyph-name="quotedbl" unicode="&#x22;" horiz-adv-x="407" 
d="M101 464v250h56v-250h-56zM250 464v250h56v-250h-56z" />
    <glyph glyph-name="numbersign" unicode="#" 
d="M164 0l32 226h-114v44h120l22 154h-114v44h120l32 226h50l-32 -226h142l32 226h50l-32 -226h114v-44h-120l-22 -154h114v-44h-120l-32 -226h-50l32 226h-142l-32 -226h-50zM394 270l22 154h-142l-22 -154h142z" />
    <glyph glyph-name="dollar" unicode="$" 
d="M307 396v244q-86 -3 -134.5 -34t-48.5 -89q0 -54 47.5 -80.5t135.5 -40.5zM363 317v-265q41 0 75 7t63.5 22t46.5 41.5t17 63.5q0 52 -47 84.5t-155 46.5zM307 52v273q-48 8 -79.5 14.5t-70 20.5t-60.5 32t-37.5 48.5t-15.5 69.5q0 52 22 91t60 61.5t83 33.5t98 12v61h56
v-61q53 -3 97 -15.5t81 -36.5t59 -65t24 -96h-74q-11 132 -187 145v-255q152 -20 217 -63.5t65 -122.5q0 -59 -24.5 -102t-66.5 -66.5t-89.5 -34.5t-101.5 -12v-97h-56v97q-283 14 -284 245h74q0 -164 210 -177z" />
    <glyph glyph-name="percent" unicode="%" horiz-adv-x="963" 
d="M726 34q53 0 83 38t30 106t-30 106t-83 38t-83 -38t-30 -106t30 -106t83 -38zM213 -16l476 724h59l-476 -724h-59zM237 370q53 0 83 38t30 106t-30 106t-83 38t-83 -38t-30 -106t30 -106t83 -38zM726 -16q-78 0 -126.5 50.5t-48.5 143.5t48.5 143.5t126.5 50.5
t126.5 -50.5t48.5 -143.5t-48.5 -143.5t-126.5 -50.5zM237 320q-78 0 -126.5 50.5t-48.5 143.5t48.5 143.5t126.5 50.5t126.5 -50.5t48.5 -143.5t-48.5 -143.5t-126.5 -50.5z" />
    <glyph glyph-name="ampersand" unicode="&#x26;" horiz-adv-x="778" 
d="M558 132l-247 234q-86 -32 -126 -73t-40 -100q0 -61 51 -104t149 -43q66 0 116 19t97 67zM698 0l-93 89q-39 -48 -109 -76.5t-155 -28.5q-131 0 -200.5 59t-69.5 154q0 73 46 120.5t152 91.5q-46 44 -68 77.5t-22 79.5q0 66 48 107t126 41q89 0 131.5 -43.5t42.5 -101.5
q0 -111 -149 -173l219 -207q30 39 38 120h68q0 -32 -15 -78.5t-42 -86.5l153 -144h-101zM459 565q0 38 -28 62.5t-84 24.5q-40 0 -70 -23t-30 -60q0 -25 16 -52.5t71 -81.5q125 54 125 130z" />
    <glyph glyph-name="quotesingle" unicode="'" horiz-adv-x="278" 
d="M111 464v250h56v-250h-56z" />
    <glyph glyph-name="parenleft" unicode="(" horiz-adv-x="352" 
d="M262 714h56q-34 -48 -54 -80t-49.5 -92t-44 -130.5t-14.5 -149.5t14.5 -149.5t44 -130.5t49.5 -92t54 -80h-56q-13 14 -23 26t-42.5 61.5t-54.5 97t-41 121t-19 146.5t19 146.5t41 121t54.5 97t42.5 61.5t23 26z" />
    <glyph glyph-name="parenright" unicode=")" horiz-adv-x="352" 
d="M90 -190h-56q34 48 54 80t49.5 92t44 130.5t14.5 149.5t-14.5 149.5t-44 130.5t-49.5 92t-54 80h56q13 -14 23 -26t42.5 -61.5t54.5 -97t41 -121t19 -146.5t-19 -146.5t-41 -121t-54.5 -97t-42.5 -61.5t-23 -26z" />
    <glyph glyph-name="asterisk" unicode="*" horiz-adv-x="426" 
d="M185 580v134h56v-134l127 48l20 -49l-132 -50l92 -103l-38 -36l-97 109l-97 -109l-38 36l92 103l-132 50l20 49z" />
    <glyph glyph-name="plus" unicode="+" horiz-adv-x="600" 
d="M275 0v228h-228v50h228v228h50v-228h228v-50h-228v-228h-50z" />
    <glyph glyph-name="comma" unicode="," horiz-adv-x="278" 
d="M96 0v110h86v-112q0 -112 -95 -138v38q28 12 36.5 35.5t8.5 66.5h-36z" />
    <glyph glyph-name="hyphen" unicode="-" horiz-adv-x="444" 
d="M70 237v74h304v-74h-304z" />
    <glyph glyph-name="period" unicode="." horiz-adv-x="278" 
d="M96 0v110h86v-110h-86z" />
    <glyph glyph-name="slash" unicode="/" horiz-adv-x="407" 
d="M4 -18l343 750h56l-343 -750h-56z" />
    <glyph glyph-name="zero" unicode="0" 
d="M334 646q-218 0 -218 -301q0 -299 218 -299t218 299q0 301 -218 301zM334 708q135 0 213.5 -90t78.5 -273q0 -181 -78.5 -271t-213.5 -90t-213.5 90t-78.5 271q0 183 78.5 273t213.5 90z" />
    <glyph glyph-name="one" unicode="1" horiz-adv-x="444" 
d="M236 0v520h-216v56h49q92 0 128 24t51 108h62v-708h-74z" />
    <glyph glyph-name="two" unicode="2" 
d="M594 68v-68h-542q4 37 13 63.5t33 63t74 74.5t126 78q127 67 170.5 108t43.5 108q0 75 -46.5 113t-130.5 38q-57 0 -96.5 -15.5t-59.5 -44t-28.5 -59.5t-9.5 -70h-74q0 128 70.5 189.5t198.5 61.5q68 0 118.5 -19t78 -50.5t40.5 -68t13 -76.5q0 -82 -42.5 -129.5
t-130.5 -95.5q-153 -83 -204.5 -121t-64.5 -80h450z" />
    <glyph glyph-name="three" unicode="3" 
d="M282 336v62h48q88 0 132 26t44 92q0 65 -45.5 97.5t-122.5 32.5q-196 0 -196 -171h-74q2 102 70 167.5t200 65.5q47 0 88.5 -10.5t77 -32.5t56 -60.5t20.5 -88.5q0 -52 -34.5 -93.5t-95.5 -48.5v-2q68 -5 112.5 -52.5t44.5 -123.5q0 -57 -21.5 -99t-60.5 -66t-88 -35.5
t-108 -11.5q-135 0 -206.5 62t-72.5 179h74q4 -95 57.5 -137t158.5 -42q102 0 147.5 43t45.5 105q0 81 -51 111.5t-140 30.5h-60z" />
    <glyph glyph-name="four" unicode="4" 
d="M418 236v368h-2l-300 -368h302zM418 0v174h-376v68l379 466h65v-472h132v-62h-132v-174h-68z" />
    <glyph glyph-name="five" unicode="5" 
d="M72 326l70 366h417v-62h-361l-49 -229l2 -2q70 68 181 68q128 0 199.5 -65.5t71.5 -175.5q0 -42 -13 -81t-42.5 -77t-86.5 -61t-135 -23q-127 0 -196 56.5t-81 158.5h74q26 -153 203 -153q90 0 146.5 45.5t56.5 134.5q0 85 -54.5 132t-153.5 47q-115 0 -180 -82z" />
    <glyph glyph-name="six" unicode="6" 
d="M595 528h-74q-5 55 -50.5 86.5t-128.5 31.5q-107 0 -161 -72t-58 -237l2 -2q12 22 27.5 41.5t41.5 41t64 34t84 12.5q124 0 197.5 -63.5t73.5 -177.5t-76.5 -176.5t-194.5 -62.5q-287 0 -287 338q0 181 70.5 283.5t216.5 102.5q121 0 183 -51.5t70 -128.5zM141 226
q0 -72 50.5 -126t150.5 -54q85 0 141 48.5t56 129.5q0 77 -53 127.5t-144 50.5q-58 0 -99.5 -17.5t-62.5 -45.5t-30 -56t-9 -57z" />
    <glyph glyph-name="seven" unicode="7" horiz-adv-x="593" 
d="M552 692v-68q-36 -32 -79 -86.5t-92.5 -134t-89.5 -186.5t-56 -217h-80q20 163 120.5 345.5t205.5 278.5h-454v68h525z" />
    <glyph glyph-name="eight" unicode="8" 
d="M122 193q0 -74 58 -110.5t154 -36.5t154 36.5t58 110.5q0 76 -59.5 114.5t-152.5 38.5t-152.5 -38.5t-59.5 -114.5zM48 193q0 146 167 185v2q-133 36 -133 147q0 32 11.5 61t37.5 57.5t78 45.5t125 17t125 -17t78 -45.5t37.5 -57.5t11.5 -61q0 -111 -133 -147v-2
q167 -39 167 -185q0 -39 -14 -73.5t-44.5 -66.5t-89 -50.5t-138.5 -18.5t-138.5 18.5t-89 50.5t-44.5 66.5t-14 73.5zM334 408q87 0 132.5 31.5t45.5 83.5q0 67 -51 95t-127 28t-127 -28t-51 -95q0 -52 45.5 -83.5t132.5 -31.5z" />
    <glyph glyph-name="nine" unicode="9" 
d="M73 164h74q5 -55 50.5 -86.5t128.5 -31.5q107 0 161 72t58 237l-2 2q-12 -22 -27.5 -41.5t-41.5 -41t-64 -34t-84 -12.5q-124 0 -197.5 63.5t-73.5 177.5t76.5 176.5t194.5 62.5q287 0 287 -338q0 -181 -70.5 -283.5t-216.5 -102.5q-121 0 -183 51.5t-70 128.5zM527 466
q0 72 -50.5 126t-150.5 54q-85 0 -141 -48.5t-56 -129.5q0 -77 53 -127.5t144 -50.5q58 0 99.5 17.5t62.5 45.5t30 56t9 57z" />
    <glyph glyph-name="colon" unicode=":" horiz-adv-x="278" 
d="M96 0v110h86v-110h-86zM96 396v110h86v-110h-86z" />
    <glyph glyph-name="semicolon" unicode=";" horiz-adv-x="278" 
d="M96 0v110h86v-112q0 -112 -95 -138v38q28 12 36.5 35.5t8.5 66.5h-36zM96 396v110h86v-110h-86z" />
    <glyph glyph-name="less" unicode="&#x3c;" horiz-adv-x="600" 
d="M47 225v56l506 233v-56l-444 -205l444 -205v-56z" />
    <glyph glyph-name="equal" unicode="=" horiz-adv-x="600" 
d="M47 325v50h506v-50h-506zM47 131v50h506v-50h-506z" />
    <glyph glyph-name="greater" unicode="&#x3e;" horiz-adv-x="600" 
d="M491 253l-444 205v56l506 -233v-56l-506 -233v56z" />
    <glyph glyph-name="question" unicode="?" horiz-adv-x="648" 
d="M128 491h-74q0 104 67 172.5t192 68.5q109 0 184 -52.5t75 -153.5q0 -64 -30.5 -102.5t-112.5 -96.5q-63 -45 -76.5 -67.5t-13.5 -74.5h-68q0 29 0.5 44.5t7 34t10.5 26.5t24.5 27t35 30t53.5 40q27 20 38 29t28 27.5t23.5 38t6.5 44.5q0 63 -52 100.5t-133 37.5
q-93 0 -138 -46.5t-47 -126.5zM262 0v110h86v-110h-86z" />
    <glyph glyph-name="at" unicode="@" horiz-adv-x="800" 
d="M248 287q0 -104 83 -104q48 0 90.5 43t65 99.5t22.5 104.5q0 99 -82 99q-50 0 -92.5 -40.5t-64.5 -96t-22 -105.5zM541 494l24 67h56l-99 -298q-12 -38 -12 -60q0 -26 26 -26q61 0 115.5 82.5t54.5 163.5q0 117 -85.5 191t-201.5 74q-138 0 -231.5 -98t-93.5 -233
q0 -137 95 -234t230 -97q79 0 153 38.5t113 102.5h56q-48 -85 -135.5 -135t-186.5 -50q-159 0 -267 110t-108 265q0 156 110 265.5t265 109.5q142 0 239.5 -89t97.5 -223q0 -113 -74 -200t-156 -87q-29 0 -47.5 17.5t-18.5 51.5h-2q-62 -69 -135 -69q-62 0 -99.5 43
t-37.5 106q0 112 70 204.5t175 92.5q78 0 110 -85z" />
    <glyph glyph-name="A" unicode="A" horiz-adv-x="722" 
d="M517 285l-157 355l-159 -355h316zM642 0l-95 217h-376l-97 -217h-80l324 714h86l324 -714h-86z" />
    <glyph glyph-name="B" unicode="B" horiz-adv-x="741" 
d="M66 0v714h406q100 0 149.5 -49.5t49.5 -130.5q0 -55 -31 -97t-92 -56v-2q70 -10 110.5 -57.5t40.5 -117.5t-37 -118t-88.5 -67t-110.5 -19h-397zM140 646v-242h293q80 0 122 29.5t42 97.5q0 115 -139 115h-318zM140 336v-268h311q77 0 122.5 33t45.5 103q0 72 -39.5 102
t-110.5 30h-329z" />
    <glyph glyph-name="C" unicode="C" horiz-adv-x="815" 
d="M700 272h74q-12 -124 -108 -207t-245 -83q-174 0 -277 101.5t-103 273.5q0 51 12.5 101.5t41.5 100.5t71.5 88t108.5 61.5t146 23.5q61 0 117.5 -14.5t106 -44t82.5 -81t41 -119.5h-74q-16 96 -92 143.5t-181 47.5q-138 0 -219 -78t-81 -229q0 -62 17 -115.5t51.5 -97.5
t94 -69t137.5 -25q238 0 279 222z" />
    <glyph glyph-name="D" unicode="D" horiz-adv-x="778" 
d="M66 0v714h347q154 0 235 -93.5t81 -263.5q0 -157 -80 -257t-225 -100h-358zM140 646v-578h270q107 0 173 68t66 221q0 289 -239 289h-270z" />
    <glyph glyph-name="E" unicode="E" horiz-adv-x="685" 
d="M78 0v714h568v-68h-494v-242h476v-68h-476v-268h502v-68h-576z" />
    <glyph glyph-name="F" unicode="F" horiz-adv-x="611" 
d="M66 0v714h535v-68h-461v-242h438v-68h-438v-336h-74z" />
    <glyph glyph-name="G" unicode="G" horiz-adv-x="852" 
d="M729 0l-10 135h-2q-56 -80 -125 -116.5t-172 -36.5q-178 0 -276 102t-98 273q0 165 103.5 270t278.5 105q144 0 237 -70t108 -174h-80q-21 87 -92.5 131.5t-172.5 44.5q-144 0 -223 -82t-79 -225q0 -146 73.5 -226.5t214.5 -80.5q77 0 134 20.5t90.5 57.5t52 78.5
t27.5 93.5h-262v68h330v-368h-57z" />
    <glyph glyph-name="H" unicode="H" horiz-adv-x="796" 
d="M66 0v714h74v-302h516v302h74v-714h-74v344h-516v-344h-74z" />
    <glyph glyph-name="I" unicode="I" horiz-adv-x="222" 
d="M74 0v714h74v-714h-74z" />
    <glyph glyph-name="J" unicode="J" horiz-adv-x="556" 
d="M99 234v-26q-2 -164 158 -164q80 0 119.5 38.5t39.5 137.5v494h74v-514q0 -100 -59.5 -159t-177.5 -59q-46 0 -82.5 10t-60 24t-40 38t-25 43t-13.5 49t-5.5 45.5t-1.5 42.5h74z" />
    <glyph glyph-name="K" unicode="K" horiz-adv-x="741" 
d="M78 0v714h74v-386l461 386h107l-354 -295l378 -419h-105l-331 369l-156 -128v-241h-74z" />
    <glyph glyph-name="L" unicode="L" horiz-adv-x="593" 
d="M66 0v714h74v-646h453v-68h-527z" />
    <glyph glyph-name="M" unicode="M" horiz-adv-x="981" 
d="M492 93l318 621h105v-714h-74v617h-2l-315 -617h-68l-314 618h-2v-618h-74v714h108z" />
    <glyph glyph-name="N" unicode="N" horiz-adv-x="796" 
d="M66 0v714h89l499 -610h2v610h74v-714h-86l-502 610h-2v-610h-74z" />
    <glyph glyph-name="O" unicode="O" horiz-adv-x="852" 
d="M38 357q0 91 32 164t86.5 118.5t123 69t146.5 23.5t146.5 -23.5t123 -69t86.5 -118.5t32 -164t-32 -164t-86.5 -118.5t-123 -69t-146.5 -23.5t-146.5 23.5t-123 69t-86.5 118.5t-32 164zM118 357q0 -151 89.5 -229t218.5 -78t218.5 78t89.5 229t-89.5 229t-218.5 78
t-218.5 -78t-89.5 -229z" />
    <glyph glyph-name="P" unicode="P" horiz-adv-x="704" 
d="M152 646v-278h286q88 0 124 36.5t36 103.5q0 76 -38 107t-107 31h-301zM78 0v714h385q92 0 153.5 -50t61.5 -156q0 -101 -64 -154.5t-184 -53.5h-278v-300h-74z" />
    <glyph glyph-name="Q" unicode="Q" horiz-adv-x="852" 
d="M476 152l39 49l112 -86q107 80 107 242q0 151 -89.5 229t-218.5 78t-218.5 -78t-89.5 -229t89.5 -229t218.5 -78q80 0 143 30zM794 -14l-39 -49l-123 95q-90 -50 -206 -50q-78 0 -146.5 23.5t-123 69t-86.5 118.5t-32 164t32 164t86.5 118.5t123 69t146.5 23.5
t146.5 -23.5t123 -69t86.5 -118.5t32 -164q0 -189 -127 -288z" />
    <glyph glyph-name="R" unicode="R" horiz-adv-x="741" 
d="M78 0v714h389q103 0 167.5 -44.5t64.5 -148.5q0 -60 -36.5 -109t-103.5 -64v-2q71 -11 97 -57t30 -141q6 -130 25 -148h-80q-17 20 -19 146q-1 94 -40.5 131t-132.5 37h-287v-314h-74zM152 646v-264h313q154 0 154 139q0 125 -147 125h-320z" />
    <glyph glyph-name="S" unicode="S" 
d="M624 510h-74q-13 154 -224 154q-89 0 -145.5 -33.5t-56.5 -92.5q0 -34 15 -57t52 -39t78.5 -26t115.5 -22q47 -8 78 -15t69 -21.5t60 -33t37.5 -49t15.5 -70.5q0 -63 -26.5 -108.5t-71.5 -69.5t-94.5 -34.5t-105.5 -10.5q-146 0 -231 59t-93 195h74q9 -105 72.5 -145.5
t177.5 -40.5q60 0 105.5 11t79 44.5t33.5 86.5q0 25 -8 44.5t-27 33t-35.5 22.5t-50.5 17t-53.5 11.5t-60.5 10.5q-8 1 -13.5 2t-11.5 2q-134 21 -197.5 64t-63.5 126q0 56 24 97.5t65.5 64.5t89.5 34t103 11q46 0 87 -6.5t79.5 -23t66.5 -41t46 -63.5t19 -88z" />
    <glyph glyph-name="T" unicode="T" horiz-adv-x="630" 
d="M278 0v646h-280v68h634v-68h-280v-646h-74z" />
    <glyph glyph-name="U" unicode="U" horiz-adv-x="778" 
d="M708 714v-438q0 -31 -2.5 -57.5t-11 -57.5t-22.5 -55.5t-38.5 -48.5t-57.5 -40t-80.5 -25.5t-106.5 -9.5t-106.5 9.5t-80.5 25.5t-57.5 40t-38.5 48.5t-22.5 55.5t-11 57.5t-2.5 57.5v438h74v-438q0 -67 20 -113.5t56.5 -70t77 -33t91.5 -9.5t91.5 9.5t77 33t56.5 70
t20 113.5v438h74z" />
    <glyph glyph-name="V" unicode="V" horiz-adv-x="685" 
d="M347 84l273 630h80l-316 -714h-80l-319 714h86z" />
    <glyph glyph-name="W" unicode="W" horiz-adv-x="1056" 
d="M787 98l200 616h80l-240 -714h-86l-215 610h-2l-212 -610h-86l-237 714h83l198 -616h2l211 616h91l211 -616h2z" />
    <glyph glyph-name="X" unicode="X" horiz-adv-x="667" 
d="M-8 0l290 362l-278 352h99l232 -294l239 294h92l-280 -348l289 -366h-98l-244 307l-246 -307h-95z" />
    <glyph glyph-name="Y" unicode="Y" horiz-adv-x="686" 
d="M306 0v300l-321 414h96l262 -340l262 340h96l-321 -414v-300h-74z" />
    <glyph glyph-name="Z" unicode="Z" horiz-adv-x="648" 
d="M5 0v68l530 578h-496v68h596v-68l-533 -578h541v-68h-638z" />
    <glyph glyph-name="bracketleft" unicode="[" horiz-adv-x="352" 
d="M108 -190v904h196v-56h-128v-792h128v-56h-196z" />
    <glyph glyph-name="backslash" unicode="\" horiz-adv-x="407" 
d="M348 -18l-345 750h56l345 -750h-56z" />
    <glyph glyph-name="bracketright" unicode="]" horiz-adv-x="352" 
d="M244 714v-904h-196v56h128v792h-128v56h196z" />
    <glyph glyph-name="asciicircum" unicode="^" horiz-adv-x="600" 
d="M500 239l-200 391l-200 -391h-56l231 453h50l231 -453h-56z" />
    <glyph glyph-name="underscore" unicode="_" horiz-adv-x="500" 
d="M0 -125v50h500v-50h-500z" />
    <glyph glyph-name="grave" unicode="`" horiz-adv-x="184" 
d="M41 740l115 -142h-61l-145 142h91z" />
    <glyph glyph-name="a" unicode="a" horiz-adv-x="611" 
d="M471 201v79q-32 -20 -214 -37q-4 -1 -6 -1t-5 -0.5t-6 -0.5q-68 -6 -102 -28.5t-34 -67.5q0 -105 150 -105q83 0 150 43t67 118zM121 360h-68q9 87 65 131.5t183 44.5t182.5 -38.5t55.5 -115.5v-272q0 -32 9.5 -45t31.5 -13q13 0 39 2v-50q-40 -8 -62 -8q-27 0 -44 8
t-24 23.5t-9.5 28t-2.5 32.5h-2q-13 -19 -25.5 -32t-39.5 -32t-72.5 -29.5t-105.5 -10.5q-49 0 -92.5 13.5t-76.5 50.5t-33 92q0 41 17 70.5t40.5 46t62 27t68 14t71.5 5.5q121 7 151.5 18.5t30.5 50.5q0 56 -40 79t-132 23q-89 0 -131.5 -26.5t-46.5 -87.5z" />
    <glyph glyph-name="b" unicode="b" horiz-adv-x="667" 
d="M57 0v720h74v-304h2q27 52 84 86t128 34q138 0 210.5 -79.5t72.5 -196.5q0 -40 -8.5 -77.5t-30 -74t-53 -64t-80.5 -44t-111 -16.5q-84 0 -138 38t-74 82h-2v-104h-74zM127 260q0 -99 61.5 -156.5t156.5 -57.5q105 0 157 63t52 151q0 97 -59.5 155.5t-149.5 58.5
q-106 0 -162 -63t-56 -151z" />
    <glyph glyph-name="c" unicode="c" horiz-adv-x="611" 
d="M512 186h74q-6 -31 -21 -61.5t-44 -64.5t-80 -55t-118 -21q-138 0 -215.5 75.5t-77.5 200.5q0 123 75.5 199.5t217.5 76.5q63 0 113 -18t79.5 -47.5t45.5 -59.5t21 -61h-74q-32 124 -185 124q-107 0 -163 -59.5t-56 -154.5q0 -98 57.5 -156t161.5 -58q78 0 126 38t63 102
z" />
    <glyph glyph-name="d" unicode="d" horiz-adv-x="667" 
d="M540 260q0 88 -56 151t-162 63q-90 0 -149.5 -58.5t-59.5 -155.5q0 -88 52 -151t157 -63q95 0 156.5 57.5t61.5 156.5zM536 0v104h-2q-20 -44 -74 -82t-138 -38q-62 0 -111 16.5t-80.5 44t-53 64t-30 74t-8.5 77.5q0 117 72.5 196.5t210.5 79.5q71 0 128 -34t84 -86h2
v304h74v-720h-74z" />
    <glyph glyph-name="e" unicode="e" horiz-adv-x="648" 
d="M113 298h428q-15 90 -74 133t-140 43q-80 0 -141 -43.5t-73 -132.5zM528 166h74q-26 -79 -93.5 -130.5t-186.5 -51.5q-62 0 -111 16.5t-80.5 44t-53 64t-30 74t-8.5 77.5q0 117 72.5 196.5t210.5 79.5q55 0 103 -13.5t93 -44.5t71 -91.5t26 -144.5h-502q0 -84 56.5 -140
t152.5 -56q90 0 138 29.5t68 90.5z" />
    <glyph glyph-name="f" unicode="f" horiz-adv-x="315" 
d="M107 0v464h-113v56h113v69q0 71 35.5 101t110.5 30q37 0 83 -4v-62q-46 4 -69 4q-50 0 -68 -16t-18 -61v-61h147v-56h-147v-464h-74z" />
    <glyph glyph-name="g" unicode="g" horiz-adv-x="667" 
d="M540 271q0 87 -58 145t-164 58q-98 0 -156 -54t-58 -149q0 -108 59.5 -158.5t160.5 -50.5q94 0 155 56t61 153zM538 419v101h74v-500q0 -69 -25.5 -118t-70 -74.5t-92.5 -36.5t-104 -11q-67 0 -117.5 13t-77 30t-43.5 43t-21.5 43.5t-6.5 39.5h68q5 -27 12 -42.5
t26.5 -34t60 -27.5t102.5 -9q103 0 159 48t56 141v93h-2q-26 -48 -82.5 -83t-147.5 -35q-52 0 -99 14.5t-88 44.5t-65 84.5t-24 127.5q0 112 72.5 188.5t211.5 76.5q78 0 137.5 -29.5t84.5 -87.5h2z" />
    <glyph glyph-name="h" unicode="h" horiz-adv-x="630" 
d="M57 0v720h74v-302h2q18 46 76.5 82t138.5 36q122 0 173.5 -56.5t51.5 -157.5v-322h-74v335q0 139 -157 139q-106 0 -158.5 -50.5t-52.5 -141.5v-282h-74z" />
    <glyph glyph-name="i" unicode="i" horiz-adv-x="184" 
d="M55 0v520h74v-520h-74zM55 610v110h74v-110h-74z" />
    <glyph glyph-name="j" unicode="j" horiz-adv-x="184" 
d="M-76 -217v62q24 -3 50 -3q48 0 64.5 18.5t16.5 60.5v599h74v-599q0 -141 -135 -141q-1 0 -70 3zM55 610v110h74v-110h-74z" />
    <glyph glyph-name="k" unicode="k" horiz-adv-x="574" 
d="M57 0v720h74v-453l317 253h110l-255 -197l274 -323h-98l-231 275l-117 -89v-186h-74z" />
    <glyph glyph-name="l" unicode="l" horiz-adv-x="184" 
d="M55 0v720h74v-720h-74z" />
    <glyph glyph-name="m" unicode="m" horiz-adv-x="1000" 
d="M869 0v330q0 144 -155 144q-84 0 -130.5 -45t-46.5 -122v-307h-74v352q0 53 -38 87.5t-110 34.5q-82 0 -133 -47t-51 -134v-293h-74v520h74v-96h2q63 112 206 112q80 0 126.5 -34t59.5 -80q21 44 76.5 79t127.5 35q106 0 160 -49t54 -132v-355h-74z" />
    <glyph glyph-name="n" unicode="n" horiz-adv-x="630" 
d="M499 0v335q0 139 -157 139q-106 0 -158.5 -50.5t-52.5 -141.5v-282h-74v520h74v-102h2q18 46 76.5 82t138.5 36q122 0 173.5 -56.5t51.5 -157.5v-322h-74z" />
    <glyph glyph-name="o" unicode="o" 
d="M113 260q0 -96 59 -155t162 -59t162 59t59 155t-59 155t-162 59t-162 -59t-59 -155zM39 260q0 117 76.5 196.5t218.5 79.5t218.5 -79.5t76.5 -196.5t-76.5 -196.5t-218.5 -79.5t-218.5 79.5t-76.5 196.5z" />
    <glyph glyph-name="p" unicode="p" horiz-adv-x="667" 
d="M57 -202v722h74v-104h2q55 120 212 120q62 0 111 -16.5t80.5 -44t53 -64t30 -74t8.5 -77.5q0 -117 -72.5 -196.5t-210.5 -79.5q-71 0 -128 34t-84 86h-2v-306h-74zM127 260q0 -88 56 -151t162 -63q90 0 149.5 58.5t59.5 155.5q0 88 -52 151t-157 63q-95 0 -156.5 -57.5
t-61.5 -156.5z" />
    <glyph glyph-name="q" unicode="q" horiz-adv-x="667" 
d="M536 416v104h74v-722h-74v306h-2q-27 -52 -84 -86t-128 -34q-138 0 -210.5 79.5t-72.5 196.5q0 50 16.5 97.5t49 88t87.5 65.5t124 25q87 0 144 -38t74 -82h2zM540 260q0 99 -61.5 156.5t-156.5 57.5q-105 0 -157 -63t-52 -151q0 -97 59.5 -155.5t149.5 -58.5
q106 0 162 63t56 151z" />
    <glyph glyph-name="r" unicode="r" horiz-adv-x="370" 
d="M57 0v520h74v-119h2q59 135 199 135q22 0 44 -4v-76q-34 6 -68 6q-71 0 -124 -48t-53 -149v-265h-74z" />
    <glyph glyph-name="s" unicode="s" horiz-adv-x="556" 
d="M512 366h-68q-14 61 -55 84.5t-124 23.5q-150 0 -150 -89q0 -40 35.5 -55t157.5 -31q126 -17 175.5 -47t49.5 -103q0 -78 -63 -121.5t-184 -43.5q-263 0 -263 179h68q10 -65 52.5 -91t142.5 -26q84 0 128.5 22t44.5 77q0 40 -40.5 59.5t-158.5 31.5q-121 12 -170 44.5
t-49 101.5q0 70 57 112t167 42q123 0 181.5 -42.5t65.5 -127.5z" />
    <glyph glyph-name="t" unicode="t" horiz-adv-x="352" 
d="M107 520v164h74v-164h147v-56h-147v-344q0 -36 15.5 -51t58.5 -15q45 0 73 6v-62q-42 -6 -81 -6q-82 0 -111 30.5t-29 98.5v343h-113v56h113z" />
    <glyph glyph-name="u" unicode="u" horiz-adv-x="630" 
d="M499 0v102h-2q-18 -46 -76.5 -82t-138.5 -36q-122 0 -173.5 56.5t-51.5 157.5v322h74v-335q0 -139 157 -139q106 0 158.5 50.5t52.5 141.5v282h74v-520h-74z" />
    <glyph glyph-name="v" unicode="v" horiz-adv-x="556" 
d="M278 85l204 435h80l-244 -520h-80l-244 520h80z" />
    <glyph glyph-name="w" unicode="w" horiz-adv-x="889" 
d="M642 97l167 423h80l-211 -520h-80l-157 416l-155 -416h-80l-206 520h80l165 -426l157 426h80z" />
    <glyph glyph-name="x" unicode="x" horiz-adv-x="574" 
d="M-3 0l239 270l-222 250h96l176 -198l175 198h97l-225 -250l244 -270h-98l-193 216l-192 -216h-97z" />
    <glyph glyph-name="y" unicode="y" horiz-adv-x="556" 
d="M286 87l196 433h80l-282 -617q-29 -62 -60 -83.5t-92 -21.5q-49 0 -71 2v62q32 -2 53 -2q41 0 63.5 13t39.5 51l34 72l-253 524h80z" />
    <glyph glyph-name="z" unicode="z" horiz-adv-x="556" 
d="M20 0v62l395 396h-372v62h478v-62l-403 -396h418v-62h-516z" />
    <glyph glyph-name="braceleft" unicode="{" horiz-adv-x="352" 
d="M48 243v38q35 0 47.5 28t12.5 109v175q0 121 107 121h58v-38h-49q-24 0 -36 -18t-12 -65v-175q1 -71 -22.5 -109t-55.5 -46v-2q32 -8 55.5 -46t22.5 -109v-175q0 -47 12 -65t36 -18h49v-38h-58q-107 0 -107 121v175q0 81 -12.5 109t-47.5 28z" />
    <glyph glyph-name="bar" unicode="|" horiz-adv-x="222" 
d="M86 -18v750h50v-750h-50z" />
    <glyph glyph-name="braceright" unicode="}" horiz-adv-x="352" 
d="M79 -190v38h49q24 0 36 18t12 65v175q-1 71 22.5 109t55.5 46v2q-32 8 -55.5 46t-22.5 109v175q0 47 -12 65t-36 18h-49v38h58q107 0 107 -121v-175q0 -81 12.5 -109t47.5 -28v-38q-35 0 -47.5 -28t-12.5 -109v-175q0 -121 -107 -121h-58z" />
    <glyph glyph-name="asciitilde" unicode="~" horiz-adv-x="600" 
d="M495 316l36 -36q-20 -27 -33 -42t-38 -29.5t-54 -14.5q-42 0 -102 33q-62 35 -115 35q-51 0 -84 -72l-36 36q45 86 125 86q39 0 111 -32q7 -3 21.5 -9.5t23 -10t20 -8t20.5 -6.5t17 -2q19 0 36.5 12t27 24.5t24.5 35.5z" />
    <glyph glyph-name="exclamdown" unicode="&#xa1;" horiz-adv-x="296" 
d="M105 426v110h86v-110h-86zM108 -178v189l18 340h44l18 -340v-189h-80z" />
    <glyph glyph-name="cent" unicode="&#xa2;" 
d="M321 47v426q-95 -9 -143 -68.5t-48 -144.5q0 -91 49.5 -148t141.5 -65zM321 -124v109q-126 8 -195.5 82.5t-69.5 192.5q0 44 14 87.5t42.5 85.5t82.5 70t126 33v84h44v-84q112 -5 172 -61.5t71 -124.5h-74q-31 117 -169 124v-428q71 4 115 41.5t58 98.5h74
q-6 -30 -20.5 -59.5t-41.5 -62.5t-75 -55t-110 -25v-108h-44z" />
    <glyph glyph-name="sterling" unicode="&#xa3;" 
d="M53 320v44h72q-48 83 -48 130q0 94 72 154t197 60q131 0 199.5 -61.5t68.5 -168.5h-74q0 87 -59.5 127.5t-140.5 40.5q-76 0 -132.5 -40t-56.5 -108q0 -25 9.5 -52t23 -52.5t15.5 -29.5h221v-44h-203q20 -43 20 -93q0 -38 -31 -86.5t-72 -76.5l2 -2q69 28 113 28
q27 0 105 -19t96 -19q62 0 147 65l25 -62q-20 -23 -71 -47t-101 -24q-37 0 -119 22t-111 22q-67 0 -139 -42l-35 57q49 34 86 85t37 103q0 25 -26 89h-90z" />
    <glyph glyph-name="currency" unicode="&#xa4;" 
d="M86 136l54 56q-54 64 -54 154t54 154l-54 56l38 38l55 -55q67 55 155 55t155 -55l55 55l38 -38l-54 -56q54 -64 54 -154t-54 -154l54 -56l-38 -38l-55 55q-67 -55 -155 -55t-155 55l-55 -55zM136 346q0 -81 58.5 -139.5t139.5 -58.5t139.5 58.5t58.5 139.5t-58.5 139.5
t-139.5 58.5t-139.5 -58.5t-58.5 -139.5z" />
    <glyph glyph-name="yen" unicode="&#xa5;" 
d="M297 194v96l-8 11h-198v50h160l-258 341h86l255 -340l255 340h86l-258 -341h160v-50h-198l-8 -11v-96h206v-50h-206v-144h-74v144h-206v50h206z" />
    <glyph glyph-name="brokenbar" unicode="&#xa6;" horiz-adv-x="222" 
d="M86 -18v275h50v-275h-50zM86 457v275h50v-275h-50z" />
    <glyph glyph-name="section" unicode="&#xa7;" horiz-adv-x="667" 
d="M97 17h74q3 -68 51.5 -98.5t121.5 -30.5q59 0 100 23.5t41 68.5q0 41 -36.5 69t-115.5 62l-128 55q-80 34 -118 68t-38 89q0 114 119 148q-59 39 -59 101q0 69 50.5 114.5t160.5 45.5q103 0 166.5 -44.5t63.5 -136.5h-74q0 19 -6.5 36.5t-21.5 37.5t-48 32.5t-80 12.5
q-65 0 -101 -22t-36 -64q0 -17 9 -33t20.5 -26.5t35.5 -24t40.5 -20.5l49.5 -21l131 -55q76 -32 112.5 -67t36.5 -97q0 -34 -11.5 -60t-33.5 -42t-36 -23t-38 -16q60 -42 60 -111q0 -67 -55 -114.5t-160 -47.5q-234 0 -247 191zM117 341q0 -23 9 -40t24 -29t46 -27t63 -28
t87.5 -37.5t107.5 -50.5q25 0 60.5 26.5t35.5 73.5q0 19 -6.5 34.5t-22.5 30t-33 25.5t-50 26t-60.5 26.5t-76.5 32t-88 37.5q-26 -4 -61 -31t-35 -69z" />
    <glyph glyph-name="dieresis" unicode="&#xa8;" horiz-adv-x="184" 
d="M-58 604v110h74v-110h-74zM168 604v110h74v-110h-74z" />
    <glyph glyph-name="copyright" unicode="&#xa9;" horiz-adv-x="800" 
d="M75 357q0 -138 94 -234.5t231 -96.5t231 96.5t94 235.5q0 137 -94 233.5t-231 96.5t-231 -96.5t-94 -234.5zM546 280h56q-18 -72 -69 -116.5t-121 -44.5q-102 0 -164.5 68t-62.5 170q0 105 60 171t164 66q76 0 129.5 -41.5t63.5 -114.5h-56q-9 47 -45.5 76.5t-91.5 29.5
q-79 0 -123.5 -52.5t-44.5 -134.5q0 -77 47 -132.5t124 -55.5q53 0 89.5 31t44.5 80zM25 357q0 155 110 265t265 110t265 -110t110 -265t-110 -265t-265 -110t-265 110t-110 265z" />
    <glyph glyph-name="ordfeminine" unicode="&#xaa;" horiz-adv-x="397" 
d="M300 513v39q-22 -15 -129 -22q-57 -4 -76 -16.5t-19 -38.5q0 -59 89 -59q54 0 94.5 25.5t40.5 71.5zM402 432v-38q-36 -4 -46 -4q-23 0 -35 8.5t-14 17.5t-3 25h-2q-4 -10 -12 -19t-24.5 -20t-46 -17.5t-68.5 -6.5q-51 0 -91 23t-40 71q0 51 43.5 74.5t132.5 27.5
q67 3 85.5 9.5t18.5 25.5q0 30 -23.5 42.5t-82.5 12.5q-106 0 -110 -62h-50q6 52 42.5 79t119.5 27q82 0 118 -23t36 -70v-152q0 -35 27 -35q9 0 25 4z" />
    <glyph glyph-name="guillemotleft" unicode="&#xab;" horiz-adv-x="500" 
d="M258 238v72l157 135v-77l-113 -94l113 -94v-77zM73 238v72l157 135v-77l-113 -94l113 -94v-77z" />
    <glyph glyph-name="logicalnot" unicode="&#xac;" horiz-adv-x="600" 
d="M503 108v217h-456v50h506v-267h-50z" />
    <glyph glyph-name="registered" unicode="&#xae;" horiz-adv-x="800" 
d="M25 357q0 155 110 265t265 110t265 -110t110 -265t-110 -265t-265 -110t-265 110t-110 265zM75 357q0 -138 94 -234.5t231 -96.5t231 96.5t94 235.5q0 137 -94 233.5t-231 96.5t-231 -96.5t-94 -234.5zM536 134l-131 198h-95v-198h-50v446h171q145 0 145 -124
q0 -55 -31 -85.5t-81 -38.5l134 -198h-62zM310 536v-160h111q105 0 105 81q0 79 -105 79h-111z" />
    <glyph glyph-name="macron" unicode="&#xaf;" horiz-adv-x="184" 
d="M-101 641v56h386v-56h-386z" />
    <glyph glyph-name="degree" unicode="&#xb0;" horiz-adv-x="400" 
d="M57 565q0 59 42 101t101 42t101 -42t42 -101t-42 -101t-101 -42t-101 42t-42 101zM101 565q0 -41 29 -70t70 -29t70 29t29 70t-29 70t-70 29t-70 -29t-29 -70z" />
    <glyph glyph-name="plusminus" unicode="&#xb1;" horiz-adv-x="600" 
d="M275 324v182h50v-182h228v-50h-228v-182h-50v182h-228v50h228zM47 0v50h506v-50h-506z" />
    <glyph glyph-name="twosuperior" unicode="&#xb2;" horiz-adv-x="434" 
d="M386 336v-50h-352q4 30 12.5 51t43 52.5t96.5 61.5q82 40 110.5 65t28.5 64q0 84 -107 84q-116 0 -118 -107h-56q0 151 174 151q85 0 124 -38t39 -90q0 -50 -27.5 -80.5t-77.5 -54.5q-101 -48 -133.5 -68.5t-40.5 -40.5h284z" />
    <glyph glyph-name="threesuperior" unicode="&#xb3;" horiz-adv-x="434" 
d="M186 484v44q8 -2 32 -2q52 0 79 15t27 52q0 33 -28.5 52t-72.5 19q-61 0 -90.5 -26.5t-29.5 -69.5h-56q2 61 46 100.5t130 39.5q66 0 111.5 -28t45.5 -87q0 -31 -22.5 -56t-61.5 -29v-2q44 -2 73 -30t29 -74q0 -66 -49 -97t-120 -31q-193 0 -193 145h56q0 -101 140 -101
q55 0 82.5 25t27.5 57q0 27 -12.5 44.5t-37.5 25.5t-47.5 10.5t-58.5 3.5z" />
    <glyph glyph-name="acute" unicode="&#xb4;" horiz-adv-x="184" 
d="M28 598l115 142h91l-145 -142h-61z" />
    <glyph glyph-name="mu" unicode="&#xb5;" horiz-adv-x="630" 
d="M499 0v102h-2q-18 -46 -76.5 -82t-138.5 -36q-103 0 -151 50v-236h-74v722h74v-335q0 -72 44.5 -105.5t112.5 -33.5q106 0 158.5 50.5t52.5 141.5v282h74v-520h-74z" />
    <glyph glyph-name="paragraph" unicode="&#xb6;" horiz-adv-x="600" 
d="M249 -156v484q-87 0 -147 56t-60 134q0 94 58.5 145t164.5 51h217v-870h-56v826h-121v-826h-56z" />
    <glyph glyph-name="periodcentered" unicode="&#xb7;" horiz-adv-x="278" 
d="M73 312q0 27 19.5 46.5t46.5 19.5t46.5 -19.5t19.5 -46.5t-19.5 -46.5t-46.5 -19.5t-46.5 19.5t-19.5 46.5z" />
    <glyph glyph-name="cedilla" unicode="&#xb8;" horiz-adv-x="184" 
d="M24 -78l57 80h41l-42 -57l2 -2q15 5 40 5q39 0 62.5 -18.5t23.5 -49.5q0 -32 -35 -54t-91 -22q-48 0 -99 17l12 35q49 -14 83 -14q68 0 68 38q0 18 -16 27t-36 9q-31 0 -53 -11z" />
    <glyph glyph-name="onesuperior" unicode="&#xb9;" horiz-adv-x="289" 
d="M146 286v306h-133v38h32q55 0 78.5 14.5t34.5 63.5h44v-422h-56z" />
    <glyph glyph-name="ordmasculine" unicode="&#xba;" horiz-adv-x="434" 
d="M81 544q0 -56 37 -89t99 -33t99 33t37 89q0 55 -37 87.5t-99 32.5t-99 -32.5t-37 -87.5zM25 544q0 69 50 116.5t142 47.5t142 -47.5t50 -116.5q0 -70 -49.5 -118t-142.5 -48t-142.5 48t-49.5 118z" />
    <glyph glyph-name="guillemotright" unicode="&#xbb;" horiz-adv-x="500" 
d="M198 274l-113 94v77l157 -135v-72l-157 -135v77zM383 274l-113 94v77l157 -135v-72l-157 -135v77z" />
    <glyph glyph-name="onequarter" unicode="&#xbc;" horiz-adv-x="1000" 
d="M816 143v205h-2l-180 -205h182zM816 0v99h-238v44l244 279h50v-279h80v-44h-80v-99h-56zM176 -16l425 724h62l-425 -724h-62zM146 286v306h-133v38h32q55 0 78.5 14.5t34.5 63.5h44v-422h-56z" />
    <glyph glyph-name="onehalf" unicode="&#xbd;" horiz-adv-x="1000" 
d="M176 -16l425 724h62l-425 -724h-62zM146 286v306h-133v38h32q55 0 78.5 14.5t34.5 63.5h44v-422h-56zM952 50v-50h-352q4 30 12.5 51t43 52.5t96.5 61.5q82 40 110.5 65t28.5 64q0 84 -107 84q-64 0 -90.5 -30.5t-27.5 -73.5h-56q0 148 174 148q85 0 124 -38t39 -90
q0 -50 -27.5 -80.5t-77.5 -54.5q-101 -48 -133.5 -68.5t-40.5 -40.5h284z" />
    <glyph glyph-name="threequarters" unicode="&#xbe;" horiz-adv-x="1000" 
d="M816 143v205h-2l-180 -205h182zM816 0v99h-238v44l244 279h50v-279h80v-44h-80v-99h-56zM278 -16l425 724h62l-425 -724h-62zM186 484v44q8 -2 32 -2q52 0 79 15t27 52q0 33 -28.5 52t-72.5 19q-61 0 -90.5 -26.5t-29.5 -69.5h-56q2 61 46 100.5t130 39.5q66 0 111.5 -28
t45.5 -87q0 -31 -22.5 -56t-61.5 -29v-2q44 -2 73 -30t29 -74q0 -66 -49 -97t-120 -31q-193 0 -193 145h56q0 -101 140 -101q55 0 82.5 25t27.5 57q0 27 -12.5 44.5t-37.5 25.5t-47.5 10.5t-58.5 3.5z" />
    <glyph glyph-name="questiondown" unicode="&#xbf;" horiz-adv-x="648" 
d="M520 45h74q0 -104 -67 -172.5t-192 -68.5q-109 0 -184 52.5t-75 153.5q0 64 30.5 102.5t112.5 96.5q63 45 76.5 67.5t13.5 74.5h68q0 -29 -0.5 -44.5t-7 -34t-10.5 -26.5t-24.5 -27t-35 -30t-53.5 -40q-27 -20 -38 -29t-28 -27.5t-23.5 -38t-6.5 -44.5q0 -63 52 -100.5
t133 -37.5q93 0 138 46.5t47 126.5zM386 536v-110h-86v110h86z" />
    <glyph glyph-name="Agrave" unicode="&#xc0;" horiz-adv-x="722" 
d="M517 285l-157 355l-159 -355h316zM642 0l-95 217h-376l-97 -217h-80l324 714h86l324 -714h-86zM310 894l115 -142h-61l-145 142h91z" />
    <glyph glyph-name="Aacute" unicode="&#xc1;" horiz-adv-x="722" 
d="M517 285l-157 355l-159 -355h316zM642 0l-95 217h-376l-97 -217h-80l324 714h86l324 -714h-86zM297 752l115 142h91l-145 -142h-61z" />
    <glyph glyph-name="Acircumflex" unicode="&#xc2;" horiz-adv-x="722" 
d="M517 285l-157 355l-159 -355h316zM642 0l-95 217h-376l-97 -217h-80l324 714h86l324 -714h-86zM178 752l143 142h80l143 -142h-75l-108 101l-108 -101h-75z" />
    <glyph glyph-name="Atilde" unicode="&#xc3;" horiz-adv-x="722" 
d="M517 285l-157 355l-159 -355h316zM642 0l-95 217h-376l-97 -217h-80l324 714h86l324 -714h-86zM502 877h44q-8 -45 -27 -70q-27 -38 -76 -38q-38 0 -90 26q-54 26 -79 26q-47 0 -54 -52h-44q23 108 103 108q38 0 90 -26q54 -26 79 -26q47 0 54 52z" />
    <glyph glyph-name="Adieresis" unicode="&#xc4;" horiz-adv-x="722" 
d="M517 285l-157 355l-159 -355h316zM642 0l-95 217h-376l-97 -217h-80l324 714h86l324 -714h-86zM211 758v110h74v-110h-74zM437 758v110h74v-110h-74z" />
    <glyph glyph-name="Aring" unicode="&#xc5;" horiz-adv-x="722" 
d="M517 285l-157 355l-159 -355h316zM642 0l-95 217h-376l-97 -217h-80l324 714h86l324 -714h-86zM251 843q0 45 32 77.5t78 32.5q45 0 77.5 -32.5t32.5 -77.5t-32.5 -77.5t-77.5 -32.5q-46 0 -78 32.5t-32 77.5zM289 843q0 -30 21 -51t51 -21t51 21t21 51t-21 51t-51 21
t-51 -21t-21 -51z" />
    <glyph glyph-name="AE" unicode="&#xc6;" horiz-adv-x="1093" 
d="M528 300v346h-53l-222 -346h275zM-23 0l458 714h622v-68h-455v-242h433v-68h-433v-268h460v-68h-534v232h-317l-148 -232h-86z" />
    <glyph glyph-name="Ccedilla" unicode="&#xc7;" horiz-adv-x="815" 
d="M700 272h74q-12 -124 -107.5 -206.5t-243.5 -83.5l-27 -37l2 -2q15 5 40 5q39 0 62.5 -18.5t23.5 -49.5q0 -32 -35 -54t-91 -22q-48 0 -99 17l12 35q49 -14 83 -14q68 0 68 38q0 18 -16 27t-36 9q-31 0 -53 -11l-17 17l43 62q-158 11 -250 111t-92 262q0 51 12.5 101.5
t41.5 100.5t71.5 88t108.5 61.5t146 23.5q61 0 117.5 -14.5t106 -44t82.5 -81t41 -119.5h-74q-16 96 -92 143.5t-181 47.5q-138 0 -219 -78t-81 -229q0 -62 17 -115.5t51.5 -97.5t94 -69t137.5 -25q238 0 279 222z" />
    <glyph glyph-name="Egrave" unicode="&#xc8;" horiz-adv-x="685" 
d="M78 0v714h568v-68h-494v-242h476v-68h-476v-268h502v-68h-576zM292 894l115 -142h-61l-145 142h91z" />
    <glyph glyph-name="Eacute" unicode="&#xc9;" horiz-adv-x="685" 
d="M78 0v714h568v-68h-494v-242h476v-68h-476v-268h502v-68h-576zM279 752l115 142h91l-145 -142h-61z" />
    <glyph glyph-name="Ecircumflex" unicode="&#xca;" horiz-adv-x="685" 
d="M78 0v714h568v-68h-494v-242h476v-68h-476v-268h502v-68h-576zM160 752l143 142h80l143 -142h-75l-108 101l-108 -101h-75z" />
    <glyph glyph-name="Edieresis" unicode="&#xcb;" horiz-adv-x="685" 
d="M78 0v714h568v-68h-494v-242h476v-68h-476v-268h502v-68h-576zM193 758v110h74v-110h-74zM419 758v110h74v-110h-74z" />
    <glyph glyph-name="Igrave" unicode="&#xcc;" horiz-adv-x="222" 
d="M74 0v714h74v-714h-74zM60 894l115 -142h-61l-145 142h91z" />
    <glyph glyph-name="Iacute" unicode="&#xcd;" horiz-adv-x="222" 
d="M74 0v714h74v-714h-74zM47 752l115 142h91l-145 -142h-61z" />
    <glyph glyph-name="Icircumflex" unicode="&#xce;" horiz-adv-x="222" 
d="M74 0v714h74v-714h-74zM-72 752l143 142h80l143 -142h-75l-108 101l-108 -101h-75z" />
    <glyph glyph-name="Idieresis" unicode="&#xcf;" horiz-adv-x="222" 
d="M74 0v714h74v-714h-74zM-39 758v110h74v-110h-74zM187 758v110h74v-110h-74z" />
    <glyph glyph-name="Eth" unicode="&#xd0;" horiz-adv-x="778" 
d="M66 0v347h-66v56h66v311h347q154 0 235 -93.5t81 -263.5q0 -157 -80 -257t-225 -100h-358zM140 646v-243h258v-56h-258v-279h270q107 0 173 68t66 221q0 289 -239 289h-270z" />
    <glyph glyph-name="Ntilde" unicode="&#xd1;" horiz-adv-x="796" 
d="M66 0v714h89l499 -610h2v610h74v-714h-86l-502 610h-2v-610h-74zM539 877h44q-8 -45 -27 -70q-27 -38 -76 -38q-38 0 -90 26q-54 26 -79 26q-47 0 -54 -52h-44q23 108 103 108q38 0 90 -26q54 -26 79 -26q47 0 54 52z" />
    <glyph glyph-name="Ograve" unicode="&#xd2;" horiz-adv-x="852" 
d="M38 357q0 91 32 164t86.5 118.5t123 69t146.5 23.5t146.5 -23.5t123 -69t86.5 -118.5t32 -164t-32 -164t-86.5 -118.5t-123 -69t-146.5 -23.5t-146.5 23.5t-123 69t-86.5 118.5t-32 164zM118 357q0 -151 89.5 -229t218.5 -78t218.5 78t89.5 229t-89.5 229t-218.5 78
t-218.5 -78t-89.5 -229zM375 894l115 -142h-61l-145 142h91z" />
    <glyph glyph-name="Oacute" unicode="&#xd3;" horiz-adv-x="852" 
d="M38 357q0 91 32 164t86.5 118.5t123 69t146.5 23.5t146.5 -23.5t123 -69t86.5 -118.5t32 -164t-32 -164t-86.5 -118.5t-123 -69t-146.5 -23.5t-146.5 23.5t-123 69t-86.5 118.5t-32 164zM118 357q0 -151 89.5 -229t218.5 -78t218.5 78t89.5 229t-89.5 229t-218.5 78
t-218.5 -78t-89.5 -229zM362 752l115 142h91l-145 -142h-61z" />
    <glyph glyph-name="Ocircumflex" unicode="&#xd4;" horiz-adv-x="852" 
d="M38 357q0 91 32 164t86.5 118.5t123 69t146.5 23.5t146.5 -23.5t123 -69t86.5 -118.5t32 -164t-32 -164t-86.5 -118.5t-123 -69t-146.5 -23.5t-146.5 23.5t-123 69t-86.5 118.5t-32 164zM118 357q0 -151 89.5 -229t218.5 -78t218.5 78t89.5 229t-89.5 229t-218.5 78
t-218.5 -78t-89.5 -229zM243 752l143 142h80l143 -142h-75l-108 101l-108 -101h-75z" />
    <glyph glyph-name="Otilde" unicode="&#xd5;" horiz-adv-x="852" 
d="M38 357q0 91 32 164t86.5 118.5t123 69t146.5 23.5t146.5 -23.5t123 -69t86.5 -118.5t32 -164t-32 -164t-86.5 -118.5t-123 -69t-146.5 -23.5t-146.5 23.5t-123 69t-86.5 118.5t-32 164zM118 357q0 -151 89.5 -229t218.5 -78t218.5 78t89.5 229t-89.5 229t-218.5 78
t-218.5 -78t-89.5 -229zM567 877h44q-8 -45 -27 -70q-27 -38 -76 -38q-38 0 -90 26q-54 26 -79 26q-47 0 -54 -52h-44q23 108 103 108q38 0 90 -26q54 -26 79 -26q47 0 54 52z" />
    <glyph glyph-name="Odieresis" unicode="&#xd6;" horiz-adv-x="852" 
d="M38 357q0 91 32 164t86.5 118.5t123 69t146.5 23.5t146.5 -23.5t123 -69t86.5 -118.5t32 -164t-32 -164t-86.5 -118.5t-123 -69t-146.5 -23.5t-146.5 23.5t-123 69t-86.5 118.5t-32 164zM118 357q0 -151 89.5 -229t218.5 -78t218.5 78t89.5 229t-89.5 229t-218.5 78
t-218.5 -78t-89.5 -229zM276 758v110h74v-110h-74zM502 758v110h74v-110h-74z" />
    <glyph glyph-name="multiply" unicode="&#xd7;" horiz-adv-x="600" 
d="M299 288l191 191l36 -36l-191 -190l191 -190l-36 -36l-191 191l-189 -191l-36 36l190 190l-190 190l36 36z" />
    <glyph glyph-name="Oslash" unicode="&#xd8;" horiz-adv-x="852" 
d="M184 153l454 438q-83 73 -212 73t-218.5 -78t-89.5 -229q0 -125 66 -204zM667 561l-454 -438q82 -73 213 -73q129 0 218.5 78t89.5 229q0 126 -67 204zM38 12l92 89q-92 102 -92 256q0 91 32 164t86.5 118.5t123 69t146.5 23.5q160 0 266 -89l93 89l29 -30l-92 -88
q92 -98 92 -257q0 -91 -32 -164t-86.5 -118.5t-123 -69t-146.5 -23.5q-160 0 -266 90l-93 -90z" />
    <glyph glyph-name="Ugrave" unicode="&#xd9;" horiz-adv-x="778" 
d="M708 714v-438q0 -31 -2.5 -57.5t-11 -57.5t-22.5 -55.5t-38.5 -48.5t-57.5 -40t-80.5 -25.5t-106.5 -9.5t-106.5 9.5t-80.5 25.5t-57.5 40t-38.5 48.5t-22.5 55.5t-11 57.5t-2.5 57.5v438h74v-438q0 -67 20 -113.5t56.5 -70t77 -33t91.5 -9.5t91.5 9.5t77 33t56.5 70
t20 113.5v438h74zM338 894l115 -142h-61l-145 142h91z" />
    <glyph glyph-name="Uacute" unicode="&#xda;" horiz-adv-x="778" 
d="M708 714v-438q0 -31 -2.5 -57.5t-11 -57.5t-22.5 -55.5t-38.5 -48.5t-57.5 -40t-80.5 -25.5t-106.5 -9.5t-106.5 9.5t-80.5 25.5t-57.5 40t-38.5 48.5t-22.5 55.5t-11 57.5t-2.5 57.5v438h74v-438q0 -67 20 -113.5t56.5 -70t77 -33t91.5 -9.5t91.5 9.5t77 33t56.5 70
t20 113.5v438h74zM325 752l115 142h91l-145 -142h-61z" />
    <glyph glyph-name="Ucircumflex" unicode="&#xdb;" horiz-adv-x="778" 
d="M708 714v-438q0 -31 -2.5 -57.5t-11 -57.5t-22.5 -55.5t-38.5 -48.5t-57.5 -40t-80.5 -25.5t-106.5 -9.5t-106.5 9.5t-80.5 25.5t-57.5 40t-38.5 48.5t-22.5 55.5t-11 57.5t-2.5 57.5v438h74v-438q0 -67 20 -113.5t56.5 -70t77 -33t91.5 -9.5t91.5 9.5t77 33t56.5 70
t20 113.5v438h74zM206 752l143 142h80l143 -142h-75l-108 101l-108 -101h-75z" />
    <glyph glyph-name="Udieresis" unicode="&#xdc;" horiz-adv-x="778" 
d="M708 714v-438q0 -31 -2.5 -57.5t-11 -57.5t-22.5 -55.5t-38.5 -48.5t-57.5 -40t-80.5 -25.5t-106.5 -9.5t-106.5 9.5t-80.5 25.5t-57.5 40t-38.5 48.5t-22.5 55.5t-11 57.5t-2.5 57.5v438h74v-438q0 -67 20 -113.5t56.5 -70t77 -33t91.5 -9.5t91.5 9.5t77 33t56.5 70
t20 113.5v438h74zM239 758v110h74v-110h-74zM465 758v110h74v-110h-74z" />
    <glyph glyph-name="Yacute" unicode="&#xdd;" horiz-adv-x="686" 
d="M306 0v300l-321 414h96l262 -340l262 340h96l-321 -414v-300h-74zM279 752l115 142h91l-145 -142h-61z" />
    <glyph glyph-name="Thorn" unicode="&#xde;" horiz-adv-x="704" 
d="M152 516v-278h286q88 0 124 36.5t36 103.5q0 76 -38 107t-107 31h-301zM78 0v714h74v-130h311q92 0 153.5 -50t61.5 -156q0 -101 -64 -154.5t-184 -53.5h-278v-170h-74z" />
    <glyph glyph-name="germandbls" unicode="&#xdf;" horiz-adv-x="630" 
d="M266 359v65q30 -3 41 -3q167 0 167 118q0 61 -47.5 90t-119.5 29q-99 0 -137.5 -40t-38.5 -115v-503h-74v506q0 105 60 159.5t190 54.5q69 0 119 -17t75 -45.5t36 -57.5t11 -60q0 -57 -33 -93t-87 -48v-2q16 -3 30 -7t39 -18t42.5 -34t31 -56.5t13.5 -83.5
q0 -97 -66.5 -155.5t-183.5 -58.5q-23 0 -76 8v61q38 -7 64 -7q92 0 140 45t48 117q0 81 -52.5 116t-154.5 35h-37z" />
    <glyph glyph-name="agrave" unicode="&#xe0;" horiz-adv-x="611" 
d="M471 201v79q-32 -20 -214 -37q-4 -1 -6 -1t-5 -0.5t-6 -0.5q-68 -6 -102 -28.5t-34 -67.5q0 -105 150 -105q83 0 150 43t67 118zM121 360h-68q9 87 65 131.5t183 44.5t182.5 -38.5t55.5 -115.5v-272q0 -32 9.5 -45t31.5 -13q13 0 39 2v-50q-40 -8 -62 -8q-27 0 -44 8
t-24 23.5t-9.5 28t-2.5 32.5h-2q-13 -19 -25.5 -32t-39.5 -32t-72.5 -29.5t-105.5 -10.5q-49 0 -92.5 13.5t-76.5 50.5t-33 92q0 41 17 70.5t40.5 46t62 27t68 14t71.5 5.5q121 7 151.5 18.5t30.5 50.5q0 56 -40 79t-132 23q-89 0 -131.5 -26.5t-46.5 -87.5zM255 740
l115 -142h-61l-145 142h91z" />
    <glyph glyph-name="aacute" unicode="&#xe1;" horiz-adv-x="611" 
d="M471 201v79q-32 -20 -214 -37q-4 -1 -6 -1t-5 -0.5t-6 -0.5q-68 -6 -102 -28.5t-34 -67.5q0 -105 150 -105q83 0 150 43t67 118zM121 360h-68q9 87 65 131.5t183 44.5t182.5 -38.5t55.5 -115.5v-272q0 -32 9.5 -45t31.5 -13q13 0 39 2v-50q-40 -8 -62 -8q-27 0 -44 8
t-24 23.5t-9.5 28t-2.5 32.5h-2q-13 -19 -25.5 -32t-39.5 -32t-72.5 -29.5t-105.5 -10.5q-49 0 -92.5 13.5t-76.5 50.5t-33 92q0 41 17 70.5t40.5 46t62 27t68 14t71.5 5.5q121 7 151.5 18.5t30.5 50.5q0 56 -40 79t-132 23q-89 0 -131.5 -26.5t-46.5 -87.5zM242 598
l115 142h91l-145 -142h-61z" />
    <glyph glyph-name="acircumflex" unicode="&#xe2;" horiz-adv-x="611" 
d="M471 201v79q-32 -20 -214 -37q-4 -1 -6 -1t-5 -0.5t-6 -0.5q-68 -6 -102 -28.5t-34 -67.5q0 -105 150 -105q83 0 150 43t67 118zM121 360h-68q9 87 65 131.5t183 44.5t182.5 -38.5t55.5 -115.5v-272q0 -32 9.5 -45t31.5 -13q13 0 39 2v-50q-40 -8 -62 -8q-27 0 -44 8
t-24 23.5t-9.5 28t-2.5 32.5h-2q-13 -19 -25.5 -32t-39.5 -32t-72.5 -29.5t-105.5 -10.5q-49 0 -92.5 13.5t-76.5 50.5t-33 92q0 41 17 70.5t40.5 46t62 27t68 14t71.5 5.5q121 7 151.5 18.5t30.5 50.5q0 56 -40 79t-132 23q-89 0 -131.5 -26.5t-46.5 -87.5zM123 598
l143 142h80l143 -142h-75l-108 101l-108 -101h-75z" />
    <glyph glyph-name="atilde" unicode="&#xe3;" horiz-adv-x="611" 
d="M471 201v79q-32 -20 -214 -37q-4 -1 -6 -1t-5 -0.5t-6 -0.5q-68 -6 -102 -28.5t-34 -67.5q0 -105 150 -105q83 0 150 43t67 118zM121 360h-68q9 87 65 131.5t183 44.5t182.5 -38.5t55.5 -115.5v-272q0 -32 9.5 -45t31.5 -13q13 0 39 2v-50q-40 -8 -62 -8q-27 0 -44 8
t-24 23.5t-9.5 28t-2.5 32.5h-2q-13 -19 -25.5 -32t-39.5 -32t-72.5 -29.5t-105.5 -10.5q-49 0 -92.5 13.5t-76.5 50.5t-33 92q0 41 17 70.5t40.5 46t62 27t68 14t71.5 5.5q121 7 151.5 18.5t30.5 50.5q0 56 -40 79t-132 23q-89 0 -131.5 -26.5t-46.5 -87.5zM447 723h44
q-8 -45 -27 -70q-27 -38 -76 -38q-38 0 -90 26q-54 26 -79 26q-47 0 -54 -52h-44q23 108 103 108q38 0 90 -26q54 -26 79 -26q47 0 54 52z" />
    <glyph glyph-name="adieresis" unicode="&#xe4;" horiz-adv-x="611" 
d="M471 201v79q-32 -20 -214 -37q-4 -1 -6 -1t-5 -0.5t-6 -0.5q-68 -6 -102 -28.5t-34 -67.5q0 -105 150 -105q83 0 150 43t67 118zM121 360h-68q9 87 65 131.5t183 44.5t182.5 -38.5t55.5 -115.5v-272q0 -32 9.5 -45t31.5 -13q13 0 39 2v-50q-40 -8 -62 -8q-27 0 -44 8
t-24 23.5t-9.5 28t-2.5 32.5h-2q-13 -19 -25.5 -32t-39.5 -32t-72.5 -29.5t-105.5 -10.5q-49 0 -92.5 13.5t-76.5 50.5t-33 92q0 41 17 70.5t40.5 46t62 27t68 14t71.5 5.5q121 7 151.5 18.5t30.5 50.5q0 56 -40 79t-132 23q-89 0 -131.5 -26.5t-46.5 -87.5zM156 604v110h74
v-110h-74zM382 604v110h74v-110h-74z" />
    <glyph glyph-name="aring" unicode="&#xe5;" horiz-adv-x="611" 
d="M471 201v79q-32 -20 -214 -37q-4 -1 -6 -1t-5 -0.5t-6 -0.5q-68 -6 -102 -28.5t-34 -67.5q0 -105 150 -105q83 0 150 43t67 118zM121 360h-68q9 87 65 131.5t183 44.5t182.5 -38.5t55.5 -115.5v-272q0 -32 9.5 -45t31.5 -13q13 0 39 2v-50q-40 -8 -62 -8q-27 0 -44 8
t-24 23.5t-9.5 28t-2.5 32.5h-2q-13 -19 -25.5 -32t-39.5 -32t-72.5 -29.5t-105.5 -10.5q-49 0 -92.5 13.5t-76.5 50.5t-33 92q0 41 17 70.5t40.5 46t62 27t68 14t71.5 5.5q121 7 151.5 18.5t30.5 50.5q0 56 -40 79t-132 23q-89 0 -131.5 -26.5t-46.5 -87.5zM196 689
q0 45 32 77.5t78 32.5q45 0 77.5 -32.5t32.5 -77.5t-32.5 -77.5t-77.5 -32.5q-46 0 -78 32.5t-32 77.5zM234 689q0 -30 21 -51t51 -21t51 21t21 51t-21 51t-51 21t-51 -21t-21 -51z" />
    <glyph glyph-name="ae" unicode="&#xe6;" horiz-adv-x="1074" 
d="M1038 242h-493q1 -88 55.5 -142t149.5 -54q87 0 134 29.5t66 90.5h74q-25 -79 -91.5 -130.5t-182.5 -51.5q-98 0 -161 41.5t-82 98.5q-10 -24 -27.5 -46t-48 -44.5t-80.5 -36t-113 -13.5q-49 0 -92.5 13.5t-76.5 50.5t-33 92q0 41 17 70.5t40.5 46t62 27t68 14t71.5 5.5
q121 7 151.5 18.5t30.5 50.5q0 56 -40 79t-132 23q-89 0 -131.5 -26.5t-46.5 -87.5h-68q9 87 65 131.5t183 44.5q108 0 156.5 -26t70.5 -84q68 110 211 110q55 0 103 -13.5t93 -44.5t71 -91.5t26 -144.5zM545 298h419q-15 90 -74 133t-140 43q-91 0 -144 -47t-61 -129z
M477 201v79q-32 -20 -214 -37q-4 -1 -6 -1t-5 -0.5t-6 -0.5q-68 -6 -102 -28.5t-34 -67.5q0 -105 150 -105q83 0 150 43t67 118z" />
    <glyph glyph-name="ccedilla" unicode="&#xe7;" horiz-adv-x="611" 
d="M512 186h74q-6 -31 -21 -61.5t-44 -64.5t-80 -55t-118 -21h-1l-28 -39l2 -2q15 5 40 5q39 0 62.5 -18.5t23.5 -49.5q0 -32 -35 -54t-91 -22q-48 0 -99 17l12 35q49 -14 83 -14q68 0 68 38q0 18 -16 27t-36 9q-31 0 -53 -11l-17 17l46 65q-121 10 -187.5 84t-66.5 189
q0 123 75.5 199.5t217.5 76.5q63 0 113 -18t79.5 -47.5t45.5 -59.5t21 -61h-74q-32 124 -185 124q-107 0 -163 -59.5t-56 -154.5q0 -98 57.5 -156t161.5 -58q78 0 126 38t63 102z" />
    <glyph glyph-name="egrave" unicode="&#xe8;" horiz-adv-x="648" 
d="M113 298h428q-15 90 -74 133t-140 43q-80 0 -141 -43.5t-73 -132.5zM528 166h74q-26 -79 -93.5 -130.5t-186.5 -51.5q-62 0 -111 16.5t-80.5 44t-53 64t-30 74t-8.5 77.5q0 117 72.5 196.5t210.5 79.5q55 0 103 -13.5t93 -44.5t71 -91.5t26 -144.5h-502q0 -84 56.5 -140
t152.5 -56q90 0 138 29.5t68 90.5zM273 740l115 -142h-61l-145 142h91z" />
    <glyph glyph-name="eacute" unicode="&#xe9;" horiz-adv-x="648" 
d="M113 298h428q-15 90 -74 133t-140 43q-80 0 -141 -43.5t-73 -132.5zM528 166h74q-26 -79 -93.5 -130.5t-186.5 -51.5q-62 0 -111 16.5t-80.5 44t-53 64t-30 74t-8.5 77.5q0 117 72.5 196.5t210.5 79.5q55 0 103 -13.5t93 -44.5t71 -91.5t26 -144.5h-502q0 -84 56.5 -140
t152.5 -56q90 0 138 29.5t68 90.5zM260 598l115 142h91l-145 -142h-61z" />
    <glyph glyph-name="ecircumflex" unicode="&#xea;" horiz-adv-x="648" 
d="M113 298h428q-15 90 -74 133t-140 43q-80 0 -141 -43.5t-73 -132.5zM528 166h74q-26 -79 -93.5 -130.5t-186.5 -51.5q-62 0 -111 16.5t-80.5 44t-53 64t-30 74t-8.5 77.5q0 117 72.5 196.5t210.5 79.5q55 0 103 -13.5t93 -44.5t71 -91.5t26 -144.5h-502q0 -84 56.5 -140
t152.5 -56q90 0 138 29.5t68 90.5zM141 598l143 142h80l143 -142h-75l-108 101l-108 -101h-75z" />
    <glyph glyph-name="edieresis" unicode="&#xeb;" horiz-adv-x="648" 
d="M113 298h428q-15 90 -74 133t-140 43q-80 0 -141 -43.5t-73 -132.5zM528 166h74q-26 -79 -93.5 -130.5t-186.5 -51.5q-62 0 -111 16.5t-80.5 44t-53 64t-30 74t-8.5 77.5q0 117 72.5 196.5t210.5 79.5q55 0 103 -13.5t93 -44.5t71 -91.5t26 -144.5h-502q0 -84 56.5 -140
t152.5 -56q90 0 138 29.5t68 90.5zM174 604v110h74v-110h-74zM400 604v110h74v-110h-74z" />
    <glyph glyph-name="igrave" unicode="&#xec;" horiz-adv-x="184" 
d="M55 0v520h74v-520h-74zM41 740l115 -142h-61l-145 142h91z" />
    <glyph glyph-name="iacute" unicode="&#xed;" horiz-adv-x="184" 
d="M55 0v520h74v-520h-74zM28 598l115 142h91l-145 -142h-61z" />
    <glyph glyph-name="icircumflex" unicode="&#xee;" horiz-adv-x="184" 
d="M55 0v520h74v-520h-74zM-91 598l143 142h80l143 -142h-75l-108 101l-108 -101h-75z" />
    <glyph glyph-name="idieresis" unicode="&#xef;" horiz-adv-x="184" 
d="M55 0v520h74v-520h-74zM-58 604v110h74v-110h-74zM168 604v110h74v-110h-74z" />
    <glyph glyph-name="eth" unicode="&#xf0;" 
d="M555 260q0 96 -59 155t-162 59t-162 -59t-59 -155t59 -155t162 -59t162 59t59 155zM39 260q0 117 76.5 196.5t218.5 79.5q119 0 184 -87h3q-77 138 -194 196l-123 -57l-32 26l113 52q-46 26 -117 48l51 40q72 -21 135 -57l120 55l30 -27l-113 -52q113 -65 175.5 -183
t62.5 -221q0 -31 -6.5 -64.5t-26 -74.5t-50.5 -72t-86 -52.5t-126 -21.5q-142 0 -218.5 79.5t-76.5 196.5z" />
    <glyph glyph-name="ntilde" unicode="&#xf1;" horiz-adv-x="630" 
d="M499 0v335q0 139 -157 139q-106 0 -158.5 -50.5t-52.5 -141.5v-282h-74v520h74v-102h2q18 46 76.5 82t138.5 36q122 0 173.5 -56.5t51.5 -157.5v-322h-74zM456 723h44q-8 -45 -27 -70q-27 -38 -76 -38q-38 0 -90 26q-54 26 -79 26q-47 0 -54 -52h-44q23 108 103 108
q38 0 90 -26q54 -26 79 -26q47 0 54 52z" />
    <glyph glyph-name="ograve" unicode="&#xf2;" 
d="M113 260q0 -96 59 -155t162 -59t162 59t59 155t-59 155t-162 59t-162 -59t-59 -155zM39 260q0 117 76.5 196.5t218.5 79.5t218.5 -79.5t76.5 -196.5t-76.5 -196.5t-218.5 -79.5t-218.5 79.5t-76.5 196.5zM283 740l115 -142h-61l-145 142h91z" />
    <glyph glyph-name="oacute" unicode="&#xf3;" 
d="M113 260q0 -96 59 -155t162 -59t162 59t59 155t-59 155t-162 59t-162 -59t-59 -155zM39 260q0 117 76.5 196.5t218.5 79.5t218.5 -79.5t76.5 -196.5t-76.5 -196.5t-218.5 -79.5t-218.5 79.5t-76.5 196.5zM270 598l115 142h91l-145 -142h-61z" />
    <glyph glyph-name="ocircumflex" unicode="&#xf4;" 
d="M113 260q0 -96 59 -155t162 -59t162 59t59 155t-59 155t-162 59t-162 -59t-59 -155zM39 260q0 117 76.5 196.5t218.5 79.5t218.5 -79.5t76.5 -196.5t-76.5 -196.5t-218.5 -79.5t-218.5 79.5t-76.5 196.5zM151 598l143 142h80l143 -142h-75l-108 101l-108 -101h-75z" />
    <glyph glyph-name="otilde" unicode="&#xf5;" 
d="M113 260q0 -96 59 -155t162 -59t162 59t59 155t-59 155t-162 59t-162 -59t-59 -155zM39 260q0 117 76.5 196.5t218.5 79.5t218.5 -79.5t76.5 -196.5t-76.5 -196.5t-218.5 -79.5t-218.5 79.5t-76.5 196.5zM475 723h44q-8 -45 -27 -70q-27 -38 -76 -38q-38 0 -90 26
q-54 26 -79 26q-47 0 -54 -52h-44q23 108 103 108q38 0 90 -26q54 -26 79 -26q47 0 54 52z" />
    <glyph glyph-name="odieresis" unicode="&#xf6;" 
d="M113 260q0 -96 59 -155t162 -59t162 59t59 155t-59 155t-162 59t-162 -59t-59 -155zM39 260q0 117 76.5 196.5t218.5 79.5t218.5 -79.5t76.5 -196.5t-76.5 -196.5t-218.5 -79.5t-218.5 79.5t-76.5 196.5zM184 604v110h74v-110h-74zM410 604v110h74v-110h-74z" />
    <glyph glyph-name="divide" unicode="&#xf7;" horiz-adv-x="600" 
d="M47 228v50h506v-50h-506zM245 459q0 23 16.5 39t38.5 16t38.5 -16t16.5 -39t-16.5 -39t-38.5 -16t-38.5 16t-16.5 39zM245 47q0 23 16.5 39t38.5 16t38.5 -16t16.5 -39t-16.5 -39t-38.5 -16t-38.5 16t-16.5 39z" />
    <glyph glyph-name="oslash" unicode="&#xf8;" 
d="M159 121l326 303q-58 50 -151 50q-103 0 -162 -59t-59 -155q0 -82 46 -139zM39 10l68 63q-68 75 -68 187q0 117 76.5 196.5t218.5 79.5q126 0 202 -65l69 65l24 -26l-68 -63q68 -74 68 -187q0 -117 -76.5 -196.5t-218.5 -79.5q-124 0 -202 65l-69 -65zM509 399l-326 -303
q56 -50 151 -50q103 0 162 59t59 155q0 84 -46 139z" />
    <glyph glyph-name="ugrave" unicode="&#xf9;" horiz-adv-x="630" 
d="M499 0v102h-2q-18 -46 -76.5 -82t-138.5 -36q-122 0 -173.5 56.5t-51.5 157.5v322h74v-335q0 -139 157 -139q106 0 158.5 50.5t52.5 141.5v282h74v-520h-74zM264 740l115 -142h-61l-145 142h91z" />
    <glyph glyph-name="uacute" unicode="&#xfa;" horiz-adv-x="630" 
d="M499 0v102h-2q-18 -46 -76.5 -82t-138.5 -36q-122 0 -173.5 56.5t-51.5 157.5v322h74v-335q0 -139 157 -139q106 0 158.5 50.5t52.5 141.5v282h74v-520h-74zM251 598l115 142h91l-145 -142h-61z" />
    <glyph glyph-name="ucircumflex" unicode="&#xfb;" horiz-adv-x="630" 
d="M499 0v102h-2q-18 -46 -76.5 -82t-138.5 -36q-122 0 -173.5 56.5t-51.5 157.5v322h74v-335q0 -139 157 -139q106 0 158.5 50.5t52.5 141.5v282h74v-520h-74zM132 598l143 142h80l143 -142h-75l-108 101l-108 -101h-75z" />
    <glyph glyph-name="udieresis" unicode="&#xfc;" horiz-adv-x="630" 
d="M499 0v102h-2q-18 -46 -76.5 -82t-138.5 -36q-122 0 -173.5 56.5t-51.5 157.5v322h74v-335q0 -139 157 -139q106 0 158.5 50.5t52.5 141.5v282h74v-520h-74zM165 604v110h74v-110h-74zM391 604v110h74v-110h-74z" />
    <glyph glyph-name="yacute" unicode="&#xfd;" horiz-adv-x="556" 
d="M286 87l196 433h80l-282 -617q-29 -62 -60 -83.5t-92 -21.5q-49 0 -71 2v62q32 -2 53 -2q41 0 63.5 13t39.5 51l34 72l-253 524h80zM214 598l115 142h91l-145 -142h-61z" />
    <glyph glyph-name="thorn" unicode="&#xfe;" horiz-adv-x="667" 
d="M57 -202v922h74v-304h2q11 22 23.5 38.5t36.5 37.5t63 32.5t89 11.5q62 0 111 -16.5t80.5 -44t53 -64t30 -74t8.5 -77.5q0 -117 -72.5 -196.5t-210.5 -79.5q-71 0 -128 34t-84 86h-2v-306h-74zM127 260q0 -88 56 -151t162 -63q90 0 149.5 58.5t59.5 155.5q0 88 -52 151
t-157 63q-95 0 -156.5 -57.5t-61.5 -156.5z" />
    <glyph glyph-name="ydieresis" unicode="&#xff;" horiz-adv-x="556" 
d="M286 87l196 433h80l-282 -617q-29 -62 -60 -83.5t-92 -21.5q-49 0 -71 2v62q32 -2 53 -2q41 0 63.5 13t39.5 51l34 72l-253 524h80zM128 604v110h74v-110h-74zM354 604v110h74v-110h-74z" />
    <glyph glyph-name="dotlessi" unicode="&#x131;" horiz-adv-x="184" 
d="M55 0v520h74v-520h-74z" />
    <glyph glyph-name="Lslash" unicode="&#x141;" horiz-adv-x="593" 
d="M140 360l210 146v-62l-210 -146v-230h453v-68h-527v247l-78 -54v62l78 54v405h74v-354z" />
    <glyph glyph-name="lslash" unicode="&#x142;" horiz-adv-x="184" 
d="M129 405l55 41v-56l-55 -41v-349h-74v299l-55 -42v56l55 42v365h74v-315z" />
    <glyph glyph-name="OE" unicode="&#x152;" horiz-adv-x="1167" 
d="M616 178v373q0 10 -14 27.5t-39.5 37.5t-71 34t-99.5 14q-117 0 -195.5 -81.5t-78.5 -225.5q0 -151 75.5 -229t198.5 -78q54 0 99.5 16t71 38t39.5 42t14 32zM616 0v78q-82 -96 -224 -96q-155 0 -254.5 97t-99.5 278q0 73 23 139.5t66 119.5t111.5 84.5t153.5 31.5
q153 0 222 -86h2v68h515v-68h-441v-242h418v-68h-418v-268h446v-68h-520z" />
    <glyph glyph-name="oe" unicode="&#x153;" horiz-adv-x="1093" 
d="M977 166h74q-25 -77 -90.5 -129.5t-166.5 -52.5q-86 0 -153 34t-91 103q-74 -137 -250 -137q-122 0 -196.5 79t-74.5 197q0 114 75 195t200 81q72 0 123.5 -20t78.5 -48.5t49 -71.5q64 140 239 140q35 0 69.5 -7.5t71.5 -28.5t65 -52.5t46 -84.5t18 -121h-475
q3 -196 205 -196q144 0 183 120zM103 260q0 -95 57.5 -154.5t154.5 -59.5q95 -2 150.5 53.5t55.5 160.5q0 93 -50.5 153.5t-152.5 60.5q-100 0 -157.5 -59t-57.5 -155zM589 298h401q-15 89 -71.5 132.5t-124.5 43.5q-89 0 -139 -42t-66 -134z" />
    <glyph glyph-name="Scaron" unicode="&#x160;" 
d="M624 510h-74q-13 154 -224 154q-89 0 -145.5 -33.5t-56.5 -92.5q0 -34 15 -57t52 -39t78.5 -26t115.5 -22q47 -8 78 -15t69 -21.5t60 -33t37.5 -49t15.5 -70.5q0 -63 -26.5 -108.5t-71.5 -69.5t-94.5 -34.5t-105.5 -10.5q-146 0 -231 59t-93 195h74q9 -105 72.5 -145.5
t177.5 -40.5q60 0 105.5 11t79 44.5t33.5 86.5q0 25 -8 44.5t-27 33t-35.5 22.5t-50.5 17t-53.5 11.5t-60.5 10.5q-8 1 -13.5 2t-11.5 2q-134 21 -197.5 64t-63.5 126q0 56 24 97.5t65.5 64.5t89.5 34t103 11q46 0 87 -6.5t79.5 -23t66.5 -41t46 -63.5t19 -88zM517 894
l-143 -142h-80l-143 142h75l108 -101l108 101h75z" />
    <glyph glyph-name="scaron" unicode="&#x161;" horiz-adv-x="556" 
d="M512 366h-68q-14 61 -55 84.5t-124 23.5q-150 0 -150 -89q0 -40 35.5 -55t157.5 -31q126 -17 175.5 -47t49.5 -103q0 -78 -63 -121.5t-184 -43.5q-263 0 -263 179h68q10 -65 52.5 -91t142.5 -26q84 0 128.5 22t44.5 77q0 40 -40.5 59.5t-158.5 31.5q-121 12 -170 44.5
t-49 101.5q0 70 57 112t167 42q123 0 181.5 -42.5t65.5 -127.5zM461 740l-143 -142h-80l-143 142h75l108 -101l108 101h75z" />
    <glyph glyph-name="Ydieresis" unicode="&#x178;" horiz-adv-x="686" 
d="M306 0v300l-321 414h96l262 -340l262 340h96l-321 -414v-300h-74zM193 758v110h74v-110h-74zM419 758v110h74v-110h-74z" />
    <glyph glyph-name="Zcaron" unicode="&#x17d;" horiz-adv-x="648" 
d="M5 0v68l530 578h-496v68h596v-68l-533 -578h541v-68h-638zM507 894l-143 -142h-80l-143 142h75l108 -101l108 101h75z" />
    <glyph glyph-name="zcaron" unicode="&#x17e;" horiz-adv-x="556" 
d="M20 0v62l395 396h-372v62h478v-62l-403 -396h418v-62h-516zM461 740l-143 -142h-80l-143 142h75l108 -101l108 101h75z" />
    <glyph glyph-name="florin" unicode="&#x192;" 
d="M161 356l9 44h135l33 156q20 92 63 122t108 30q37 0 85 -8l-11 -60q-45 6 -69 6q-46 0 -69.5 -21.5t-38.5 -94.5l-27 -130h139l-11 -44h-137l-78 -371q-7 -34 -13.5 -56t-20 -48t-31 -41t-46 -25.5t-65.5 -10.5t-88 7l12 60q55 -5 67 -5q55 0 76 24t39 109l74 357h-135z
" />
    <glyph glyph-name="circumflex" unicode="&#x2c6;" horiz-adv-x="184" 
d="M-91 598l143 142h80l143 -142h-75l-108 101l-108 -101h-75z" />
    <glyph glyph-name="caron" unicode="&#x2c7;" horiz-adv-x="184" 
d="M275 740l-143 -142h-80l-143 142h75l108 -101l108 101h75z" />
    <glyph glyph-name="breve" unicode="&#x2d8;" horiz-adv-x="184" 
d="M-73 732h50q6 -76 115 -76t115 76h50q-12 -132 -165 -132t-165 132z" />
    <glyph glyph-name="dotaccent" unicode="&#x2d9;" horiz-adv-x="184" 
d="M55 604v110h74v-110h-74z" />
    <glyph glyph-name="ring" unicode="&#x2da;" horiz-adv-x="184" 
d="M-18 669q0 45 32 77.5t78 32.5q45 0 77.5 -32.5t32.5 -77.5t-32.5 -77.5t-77.5 -32.5q-46 0 -78 32.5t-32 77.5zM20 669q0 -30 21 -51t51 -21t51 21t21 51t-21 51t-51 21t-51 -21t-21 -51z" />
    <glyph glyph-name="ogonek" unicode="&#x2db;" horiz-adv-x="184" 
d="M201 -144l12 -35q-49 -17 -102 -17q-106 0 -106 78q0 42 34.5 73t71.5 45h54q-41 -20 -69.5 -50t-28.5 -62q0 -46 52 -46q34 0 82 14z" />
    <glyph glyph-name="tilde" unicode="&#x2dc;" horiz-adv-x="184" 
d="M233 723h44q-8 -45 -27 -70q-27 -38 -76 -38q-38 0 -90 26q-54 26 -79 26q-47 0 -54 -52h-44q23 108 103 108q38 0 90 -26q54 -26 79 -26q47 0 54 52z" />
    <glyph glyph-name="hungarumlaut" unicode="&#x2dd;" horiz-adv-x="184" 
d="M-83 598l115 142h91l-145 -142h-61zM139 598l115 142h91l-145 -142h-61z" />
    <glyph glyph-name="endash" unicode="&#x2013;" horiz-adv-x="500" 
d="M0 243v62h500v-62h-500z" />
    <glyph glyph-name="emdash" unicode="&#x2014;" horiz-adv-x="1000" 
d="M0 243v62h1000v-62h-1000z" />
    <glyph glyph-name="quoteleft" unicode="&#x2018;" horiz-adv-x="278" 
d="M96 464v112q0 112 95 138v-38q-28 -12 -36.5 -35.5t-8.5 -66.5h36v-110h-86z" />
    <glyph glyph-name="quoteright" unicode="&#x2019;" horiz-adv-x="278" 
d="M96 604v110h86v-112q0 -112 -95 -138v38q28 12 36.5 35.5t8.5 66.5h-36z" />
    <glyph glyph-name="quotesinglbase" unicode="&#x201a;" horiz-adv-x="278" 
d="M96 0v110h86v-112q0 -112 -95 -138v38q28 12 36.5 35.5t8.5 66.5h-36z" />
    <glyph glyph-name="quotedblleft" unicode="&#x201c;" horiz-adv-x="407" 
d="M250 464v112q0 112 95 138v-38q-28 -12 -36.5 -35.5t-8.5 -66.5h36v-110h-86zM71 464v112q0 112 95 138v-38q-28 -12 -36.5 -35.5t-8.5 -66.5h36v-110h-86z" />
    <glyph glyph-name="quotedblright" unicode="&#x201d;" horiz-adv-x="407" 
d="M250 604v110h86v-112q0 -112 -95 -138v38q28 12 36.5 35.5t8.5 66.5h-36zM71 604v110h86v-112q0 -112 -95 -138v38q28 12 36.5 35.5t8.5 66.5h-36z" />
    <glyph glyph-name="quotedblbase" unicode="&#x201e;" horiz-adv-x="407" 
d="M71 0v110h86v-112q0 -112 -95 -138v38q28 12 36.5 35.5t8.5 66.5h-36zM250 0v110h86v-112q0 -112 -95 -138v38q28 12 36.5 35.5t8.5 66.5h-36z" />
    <glyph glyph-name="dagger" unicode="&#x2020;" 
d="M297 -156v581h-241v62h241v227h74v-227h241v-62h-241v-581h-74z" />
    <glyph glyph-name="daggerdbl" unicode="&#x2021;" 
d="M297 -156v217h-241v62h241v317h-241v62h241v212h74v-212h241v-62h-241v-317h241v-62h-241v-217h-74z" />
    <glyph glyph-name="bullet" unicode="&#x2022;" horiz-adv-x="501" 
d="M72 357q0 74 52 126.5t126 52.5t126.5 -52.5t52.5 -126.5t-52.5 -126t-126.5 -52t-126 52t-52 126z" />
    <glyph glyph-name="ellipsis" unicode="&#x2026;" horiz-adv-x="1000" 
d="M124 0v110h86v-110h-86zM457 0v110h86v-110h-86zM790 0v110h86v-110h-86z" />
    <glyph glyph-name="perthousand" unicode="&#x2030;" horiz-adv-x="1167" 
d="M986 34q53 0 83 38t30 106t-30 106t-83 38t-83 -38t-30 -106t30 -106t83 -38zM120 -16l476 724h59l-476 -724h-59zM181 370q53 0 83 38t30 106t-30 106t-83 38t-83 -38t-30 -106t30 -106t83 -38zM986 -16q-78 0 -126.5 50.5t-48.5 143.5t48.5 143.5t126.5 50.5
t126.5 -50.5t48.5 -143.5t-48.5 -143.5t-126.5 -50.5zM181 320q-78 0 -126.5 50.5t-48.5 143.5t48.5 143.5t126.5 50.5t126.5 -50.5t48.5 -143.5t-48.5 -143.5t-126.5 -50.5zM594 -16q-78 0 -126.5 50.5t-48.5 143.5t48.5 143.5t126.5 50.5t126.5 -50.5t48.5 -143.5
t-48.5 -143.5t-126.5 -50.5zM594 34q53 0 83 38t30 106t-30 106t-83 38t-83 -38t-30 -106t30 -106t83 -38z" />
    <glyph glyph-name="guilsinglleft" unicode="&#x2039;" horiz-adv-x="315" 
d="M73 238v72l157 135v-77l-113 -94l113 -94v-77z" />
    <glyph glyph-name="guilsinglright" unicode="&#x203a;" horiz-adv-x="315" 
d="M198 274l-113 94v77l157 -135v-72l-157 -135v77z" />
    <glyph glyph-name="fraction" unicode="&#x2044;" horiz-adv-x="167" 
d="M-160 -16l425 724h62l-425 -724h-62z" />
    <glyph glyph-name="trademark" unicode="&#x2122;" horiz-adv-x="990" 
d="M177 302v368h-135v44h320v-44h-135v-368h-50zM654 380l128 334h86v-412h-50v368h-2l-149 -368h-30l-149 368h-2v-368h-50v412h86z" />
    <glyph glyph-name="minus" unicode="&#x2212;" horiz-adv-x="600" 
d="M47 228v50h506v-50h-506z" />
    <glyph glyph-name="fi" unicode="&#xfb01;" horiz-adv-x="500" 
d="M107 0v464h-113v56h113v69q0 71 35.5 101t110.5 30q37 0 83 -4v-62q-46 4 -69 4q-50 0 -68 -16t-18 -61v-61h147v-56h-147v-464h-74zM371 0v520h74v-520h-74zM371 610v110h74v-110h-74z" />
    <glyph glyph-name="fl" unicode="&#xfb02;" horiz-adv-x="500" 
d="M371 0v720h74v-720h-74zM107 0v464h-113v56h113v69q0 71 35.5 101t110.5 30q37 0 83 -4v-62q-46 4 -69 4q-50 0 -68 -16t-18 -61v-61h147v-56h-147v-464h-74z" />
    </font>
</defs>
</svg>
