<?xml version="1.0" standalone="no"?>
<!DOCTYPE svg PUBLIC "-//W3C//DTD SVG 1.1//EN" "http://www.w3.org/Graphics/SVG/1.1/DTD/svg11.dtd" >
<svg xmlns="http://www.w3.org/2000/svg" xmlns:xlink="http://www.w3.org/1999/xlink" version="1.1">
<metadata>
Created by FontForge 20170731 at Mon Feb 13 21:55:14 2006
 By Aleksey,,,
Copyright (c) 1990 Adobe Systems Incorporated.  All Rights Reserved.Helvetica is a trademark of Linotype AG and/or its subsidiaries.
</metadata>
<defs>
<font id="HelveticaNeue-HeavyExt" horiz-adv-x="814" >
  <font-face 
    font-family="Helvetica Neue"
    font-weight="500"
    font-stretch="normal"
    units-per-em="1000"
    panose-1="0 0 0 0 0 0 0 0 0 0"
    ascent="800"
    descent="-200"
    x-height="542"
    cap-height="714"
    bbox="-200 -223 1297 999"
    underline-thickness="50"
    underline-position="-200"
    unicode-range="U+0020-FB02"
  />
<missing-glyph horiz-adv-x="388" 
 />
    <glyph glyph-name=".notdef" horiz-adv-x="388" 
 />
    <glyph glyph-name=".null" horiz-adv-x="0" 
 />
    <glyph glyph-name="nonmarkingreturn" horiz-adv-x="333" 
 />
    <glyph glyph-name="space" unicode=" " horiz-adv-x="388" 
 />
    <glyph glyph-name="exclam" unicode="!" horiz-adv-x="388" 
d="M108 253l-29 461h230l-29 -461h-172zM82 0v198h224v-198h-224z" />
    <glyph glyph-name="quotedbl" unicode="&#x22;" horiz-adv-x="667" 
d="M377 320v394h148v-394h-148zM142 320v394h148v-394h-148z" />
    <glyph glyph-name="numbersign" unicode="#" horiz-adv-x="888" 
d="M225 0l24 173h-82v116h98l17 116h-82v116h98l24 173h120l-24 -173h101l24 173h120l-24 -173h82v-116h-98l-17 -116h82v-116h-98l-24 -173h-120l24 173h-101l-24 -173h-120zM486 289l17 116h-101l-17 -116h101z" />
    <glyph glyph-name="dollar" unicode="$" horiz-adv-x="888" 
d="M404 447v121q-16 0 -31.5 -2t-35.5 -8t-32.5 -19.5t-12.5 -33.5q0 -38 45 -46zM472 264v-132q112 2 112 66q0 32 -23.5 45t-86.5 21h-2zM416 -105v89q-86 2 -150 13t-116.5 36t-82 70t-33.5 111h270q4 -37 28 -56.5t84 -25.5v142l-120 17q-139 20 -194.5 66t-55.5 132
q0 54 25.5 95t63 64t88.5 37t93.5 18.5t87.5 4.5v89h56v-89q174 -9 263 -61t99 -160h-264q-6 66 -98 81v-129l177 -27q109 -16 163 -61.5t54 -133.5q0 -45 -16 -81.5t-40 -60.5t-60 -41.5t-69 -27t-73.5 -14.5t-67.5 -6.5t-56 -1.5v-89h-56z" />
    <glyph glyph-name="percent" unicode="%" horiz-adv-x="1074" 
d="M174 516q0 -96 78 -96t78 96t-78 96t-78 -96zM254 -16l455 724h112l-455 -724h-112zM744 176q0 -96 78 -96t78 96t-78 96t-78 -96zM34 516q0 98 58 145t160 47t160 -47t58 -145t-58 -145t-160 -47t-160 47t-58 145zM604 176q0 98 58 145t160 47t160 -47t58 -145t-58 -145
t-160 -47t-160 47t-58 145z" />
    <glyph glyph-name="ampersand" unicode="&#x26;" horiz-adv-x="981" 
d="M539 157l-189 172q-35 -12 -56 -41.5t-21 -57.5q0 -47 37 -79.5t104 -32.5q74 0 125 39zM994 0h-286l-64 59q-122 -81 -290 -81q-155 0 -233 65.5t-78 163.5q0 166 204 212q-71 62 -71 127q0 86 75.5 130.5t192.5 44.5q128 0 199 -43.5t71 -122.5q0 -116 -158 -159
l138 -126q49 36 115 128l113 -79q-52 -83 -121 -147zM388 554q0 -29 60 -78q80 30 80 76q0 24 -18 38.5t-48 14.5q-33 0 -53.5 -13t-20.5 -38z" />
    <glyph glyph-name="quotesingle" unicode="'" horiz-adv-x="388" 
d="M120 320v394h148v-394h-148z" />
    <glyph glyph-name="parenleft" unicode="(" horiz-adv-x="481" 
d="M417 -190h-146q-95 92 -143 212t-48 240t48 240t143 212h146q-125 -197 -125 -452t125 -452z" />
    <glyph glyph-name="parenright" unicode=")" horiz-adv-x="481" 
d="M210 -190h-146q125 197 125 452t-125 452h146q95 -92 143 -212t48 -240t-48 -240t-143 -212z" />
    <glyph glyph-name="asterisk" unicode="*" horiz-adv-x="464" 
d="M52 364l91 108l-134 43l39 112l128 -53l-4 140h120l-4 -140l128 53l39 -112l-134 -43l91 -108l-96 -72l-84 114l-84 -114z" />
    <glyph glyph-name="plus" unicode="+" horiz-adv-x="600" 
d="M230 323v183h140v-183h183v-140h-183v-183h-140v183h-183v140h183z" />
    <glyph glyph-name="comma" unicode="," horiz-adv-x="388" 
d="M82 0v198h224v-127q0 -119 -55.5 -188t-168.5 -79v82q90 16 99 114h-99z" />
    <glyph glyph-name="hyphen" unicode="-" horiz-adv-x="481" 
d="M61 213v154h359v-154h-359z" />
    <glyph glyph-name="period" unicode="." horiz-adv-x="388" 
d="M82 0v198h224v-198h-224z" />
    <glyph glyph-name="slash" unicode="/" horiz-adv-x="444" 
d="M-3 -22l288 758h162l-288 -758h-162z" />
    <glyph glyph-name="zero" unicode="0" horiz-adv-x="888" 
d="M444 708q88 0 158 -20t116 -53.5t76 -81t43 -99.5t13 -111q0 -73 -21.5 -135t-67 -113.5t-127 -81t-190.5 -29.5t-190.5 29.5t-127 81t-67 113.5t-21.5 135q0 76 21 139t66.5 115t127 81.5t191.5 29.5zM444 554q-33 0 -61.5 -9.5t-55.5 -31.5t-43 -65.5t-16 -104.5
q0 -59 16 -101t43 -63.5t55.5 -31t61.5 -9.5t61.5 8.5t55.5 29.5t43 63.5t16 103.5t-16 104.5t-43 65.5t-55.5 31.5t-61.5 9.5z" />
    <glyph glyph-name="one" unicode="1" horiz-adv-x="611" 
d="M263 0v416h-212v148h34q42 0 72 4.5t60.5 17t53 39t37.5 67.5h173v-692h-218z" />
    <glyph glyph-name="two" unicode="2" horiz-adv-x="888" 
d="M828 154v-154h-797q3 83 28 145.5t71 103.5t98 66.5t124 45.5l167 47q32 9 52 27.5t20 42.5q0 34 -34 54.5t-99 21.5q-67 0 -109.5 -28t-47.5 -85h-246q10 144 116 205.5t288 61.5q177 0 277.5 -59t100.5 -174q0 -73 -47 -120.5t-119.5 -70t-148 -37.5t-143.5 -37
t-94 -56h543z" />
    <glyph glyph-name="three" unicode="3" horiz-adv-x="888" 
d="M320 296v140h146q56 0 83 14t27 50q0 68 -131 68q-61 0 -93.5 -12.5t-46.5 -52.5h-246q7 61 42.5 103.5t94 63.5t121 29.5t141.5 8.5q364 0 364 -194q0 -57 -36.5 -94.5t-82.5 -40.5v-2q57 -10 100.5 -51.5t43.5 -112.5q0 -113 -102.5 -171t-295.5 -58
q-218 0 -309.5 61.5t-98.5 188.5h238q8 -96 162 -96q68 0 111 20t43 62q0 39 -34 57.5t-111 18.5h-130z" />
    <glyph glyph-name="four" unicode="4" horiz-adv-x="888" 
d="M514 0v116h-474v156l392 420h288v-428h128v-148h-128v-116h-206zM514 264v274l-256 -274h256z" />
    <glyph glyph-name="five" unicode="5" horiz-adv-x="888" 
d="M72 302l68 390h656v-148h-503l-19 -105q83 33 214 33q161 0 256 -59.5t95 -174.5q0 -119 -101 -186.5t-298 -67.5q-203 0 -295 58.5t-107 176.5h246q17 -81 153 -81q84 0 124 26.5t40 71.5q0 43 -41 72.5t-121 29.5q-91 0 -140 -36h-227z" />
    <glyph glyph-name="six" unicode="6" horiz-adv-x="888" 
d="M492 452q348 0 348 -231q0 -111 -94.5 -174t-279.5 -63q-95 0 -165.5 16t-130 54.5t-91 112.5t-31.5 182q0 184 108.5 271.5t298.5 87.5q69 0 127.5 -9.5t113 -32t90 -65.5t44.5 -104h-234q-19 63 -135 63q-99 0 -137.5 -43t-45.5 -118q82 53 214 53zM450 312
q-89 0 -119.5 -25.5t-30.5 -68.5q0 -35 38 -60.5t113 -25.5q82 0 116.5 24.5t34.5 61.5q0 94 -152 94z" />
    <glyph glyph-name="seven" unicode="7" horiz-adv-x="833" 
d="M23 544v148h787v-190q-83 -71 -135.5 -121.5t-107 -114t-87.5 -129t-48 -137.5h-300q10 78 51.5 153.5t97 135t140.5 132.5l143 123h-541z" />
    <glyph glyph-name="eight" unicode="8" horiz-adv-x="888" 
d="M444 427q71 0 106.5 13t35.5 51q0 41 -35.5 55t-106.5 14t-106.5 -14t-35.5 -55q0 -38 35.5 -51t106.5 -13zM444 299q-158 0 -158 -82q0 -38 33.5 -61.5t124.5 -23.5t124.5 23.5t33.5 61.5q0 82 -158 82zM444 708q194 0 287 -46t93 -148q0 -35 -12 -60.5t-34 -40.5
t-37 -21.5t-37 -13.5v-2q67 -13 105.5 -56t38.5 -106q0 -230 -404 -230t-404 230q0 63 38.5 106t105.5 56v2q-22 7 -37 13.5t-37 21.5t-34 40.5t-12 60.5q0 102 93 148t287 46z" />
    <glyph glyph-name="nine" unicode="9" horiz-adv-x="888" 
d="M58 195h234q19 -63 135 -63q99 0 137.5 43t45.5 118q-82 -53 -214 -53q-348 0 -348 231q0 111 94.5 174t279.5 63q95 0 165.5 -16t130 -54.5t91 -112.5t31.5 -182q0 -184 -108.5 -271.5t-298.5 -87.5q-69 0 -127.5 9.5t-113 32t-90 65.5t-44.5 104zM438 380
q89 0 119.5 25.5t30.5 68.5q0 35 -38 60.5t-113 25.5q-82 0 -116.5 -24.5t-34.5 -61.5q0 -94 152 -94z" />
    <glyph glyph-name="colon" unicode=":" horiz-adv-x="388" 
d="M82 344v198h224v-198h-224zM82 0v198h224v-198h-224z" />
    <glyph glyph-name="semicolon" unicode=";" horiz-adv-x="388" 
d="M82 0v198h224v-127q0 -119 -55.5 -188t-168.5 -79v82q90 16 99 114h-99zM82 344v198h224v-198h-224z" />
    <glyph glyph-name="less" unicode="&#x3c;" horiz-adv-x="600" 
d="M47 192v122l506 210v-135l-340 -136l340 -136v-135z" />
    <glyph glyph-name="equal" unicode="=" horiz-adv-x="600" 
d="M47 295v140h506v-140h-506zM47 71v140h506v-140h-506z" />
    <glyph glyph-name="greater" unicode="&#x3e;" horiz-adv-x="600" 
d="M47 -18v135l340 136l-340 136v135l506 -210v-122z" />
    <glyph glyph-name="question" unicode="?" horiz-adv-x="796" 
d="M495 253h-218q1 55 16.5 83.5t56.5 49.5l109 56q58 30 58 75q0 33 -32.5 54t-81.5 21q-76 0 -108 -30.5t-36 -90.5h-235q15 137 101 199t270 62q169 0 264.5 -55.5t95.5 -166.5q0 -49 -25 -84.5t-62 -55t-74 -35t-65.5 -36t-33.5 -46.5zM274 0v198h224v-198h-224z" />
    <glyph glyph-name="at" unicode="@" horiz-adv-x="800" 
d="M309 346q0 -36 20.5 -59.5t55.5 -23.5q46 0 75.5 31t29.5 75q0 37 -22 60t-59 23q-41 0 -70.5 -33t-29.5 -73zM531 538h95l-40 -216q-8 -40 -8 -47q0 -22 17 -22q31 0 59.5 41.5t28.5 118.5q0 106 -75 166.5t-193 60.5q-129 0 -206.5 -79.5t-77.5 -204.5q0 -130 83 -206
t218 -76q114 0 196 58h113q-112 -154 -325 -154q-163 0 -279 107.5t-116 270.5q0 162 115.5 271t281.5 109q92 0 174 -36.5t134.5 -108.5t52.5 -163q0 -62 -25.5 -115.5t-64.5 -87t-84 -53t-87 -19.5q-24 0 -40 12t-19 33h-4q-39 -45 -108 -45q-66 0 -113 49.5t-47 126.5
q0 94 58.5 163.5t149.5 69.5q81 0 128 -62z" />
    <glyph glyph-name="A" unicode="A" horiz-adv-x="852" 
d="M-28 0l310 714h291l307 -714h-255l-43 116h-312l-43 -116h-255zM526 264l-99 270h-2l-99 -270h200z" />
    <glyph glyph-name="B" unicode="B" horiz-adv-x="944" 
d="M310 560v-121h237q36 0 54.5 17t18.5 44q0 26 -18.5 43t-54.5 17h-237zM310 154h256q38 0 61 19.5t23 54.5q0 34 -22.5 52.5t-61.5 18.5h-256v-145zM72 0v714h591q61 0 104 -17t63 -46t28 -56t8 -57q0 -50 -24.5 -90t-63.5 -54v-2q58 -13 91 -59t33 -120
q0 -29 -5.5 -55.5t-23 -56t-44.5 -51t-75 -36t-111 -14.5h-571z" />
    <glyph glyph-name="C" unicode="C" horiz-adv-x="963" 
d="M672 275h264q-10 -51 -25.5 -90.5t-49 -80t-81 -67t-123 -43t-173.5 -16.5q-225 0 -337 96.5t-112 282.5q0 184 110.5 281.5t338.5 97.5q70 0 126 -7t111 -26.5t95 -52t71.5 -86t46.5 -125.5h-265q-38 137 -184 137q-105 0 -151.5 -60.5t-46.5 -158.5q0 -219 198 -219
q79 0 127 36.5t60 100.5z" />
    <glyph glyph-name="D" unicode="D" horiz-adv-x="963" 
d="M72 0v714h516q167 0 253.5 -90t86.5 -267q0 -102 -28.5 -174t-81 -110.5t-116 -55.5t-145.5 -17h-485zM310 554v-394h199q49 0 84 16.5t53.5 46t27 62.5t8.5 73q0 196 -192 196h-180z" />
    <glyph glyph-name="E" unicode="E" horiz-adv-x="815" 
d="M72 0v714h715v-154h-477v-129h447v-148h-447v-129h477v-154h-715z" />
    <glyph glyph-name="F" unicode="F" horiz-adv-x="760" 
d="M72 0v714h681v-160h-443v-123h412v-154h-412v-277h-238z" />
    <glyph glyph-name="G" unicode="G" horiz-adv-x="1000" 
d="M548 257v148h384v-405h-111l-29 74q-32 -36 -108.5 -66t-199.5 -30q-230 0 -339.5 95.5t-109.5 283.5q0 167 113.5 273t334.5 106q81 0 150.5 -12t135.5 -39t109 -79.5t54 -126.5h-269q-28 103 -170 103q-105 0 -158.5 -63t-53.5 -163q0 -99 53.5 -161.5t158.5 -62.5
q166 0 201 125h-146z" />
    <glyph glyph-name="H" unicode="H" horiz-adv-x="981" 
d="M671 0v299h-361v-299h-238v714h238v-255h361v255h238v-714h-238z" />
    <glyph glyph-name="I" unicode="I" horiz-adv-x="388" 
d="M75 0v714h238v-714h-238z" />
    <glyph glyph-name="J" unicode="J" horiz-adv-x="741" 
d="M9 256v30h238q0 -85 18.5 -119t78.5 -35q60 0 79.5 31.5t19.5 98.5v452h238v-466q0 -46 -6.5 -82t-27 -72.5t-55 -61t-93.5 -39.5t-139 -15q-84 0 -144 12t-109 41.5t-73.5 85.5t-24.5 139z" />
    <glyph glyph-name="K" unicode="K" horiz-adv-x="926" 
d="M72 0v714h238v-280l298 280h317l-323 -281l348 -433h-318l-221 285l-101 -84v-201h-238z" />
    <glyph glyph-name="L" unicode="L" horiz-adv-x="760" 
d="M72 0v714h238v-548h435v-166h-673z" />
    <glyph glyph-name="M" unicode="M" horiz-adv-x="1168" 
d="M72 0v714h348l163 -471h2l163 471h348v-714h-224v534h-2l-188 -534h-196l-188 534h-2v-534h-224z" />
    <glyph glyph-name="N" unicode="N" horiz-adv-x="981" 
d="M72 0v714h274l331 -447h2v447h230v-714h-263l-342 451h-2v-451h-230z" />
    <glyph glyph-name="O" unicode="O" horiz-adv-x="1000" 
d="M35 357q0 379 465 379t465 -379t-465 -379t-465 379zM287 357q0 -109 57 -164t156 -55t156 55t57 164t-57 164t-156 55t-156 -55.5t-57 -163.5z" />
    <glyph glyph-name="P" unicode="P" horiz-adv-x="889" 
d="M310 566v-180h212q50 0 72.5 21.5t22.5 68.5t-22.5 68.5t-72.5 21.5h-212zM72 0v714h528q138 0 200.5 -64.5t62.5 -173.5q0 -47 -13 -87.5t-40.5 -75.5t-78.5 -55t-120 -20h-301v-238h-238z" />
    <glyph glyph-name="Q" unicode="Q" horiz-adv-x="1000" 
d="M853 -128l-147 129q-41 -10 -101 -17q-53 -6 -105 -6q-465 0 -465 379t465 379t465 -379q0 -184 -109 -278l102 -91zM547 141l-49 43l104 117l81 -71q30 48 30 127q0 109 -57 164t-156 55t-156 -55.5t-57 -163.5q0 -109 57 -164t156 -55q22 0 47 3z" />
    <glyph glyph-name="R" unicode="R" horiz-adv-x="926" 
d="M310 554v-156h229q43 0 66 21t23 58q0 36 -23 56.5t-66 20.5h-229zM72 0v714h572q239 0 239 -199q0 -68 -31.5 -109t-82.5 -54v-2q78 -26 86 -128q9 -116 16.5 -156.5t28.5 -65.5h-261q-14 33 -14 106q0 79 -23.5 105.5t-73.5 26.5h-218v-238h-238z" />
    <glyph glyph-name="S" unicode="S" horiz-adv-x="889" 
d="M836 505h-270q-12 83 -155 83q-124 0 -124 -70q0 -35 53 -44q26 -4 150.5 -23t162.5 -26q105 -18 159 -65.5t54 -137.5q0 -244 -412 -244q-98 0 -169 10t-131 36t-93 75t-38 121h282q5 -44 39 -66t121 -22q125 0 125 75q0 28 -24.5 41t-88.5 23l-238 36q-204 31 -204 202
q0 31 8 60t32.5 60.5t64 54t108 37.5t158.5 15q202 0 310.5 -54t119.5 -177z" />
    <glyph glyph-name="T" unicode="T" horiz-adv-x="760" 
d="M-1 554v160h762v-160h-262v-554h-238v554h-262z" />
    <glyph glyph-name="U" unicode="U" horiz-adv-x="926" 
d="M62 252v462h238v-423q0 -84 39 -118.5t124 -34.5t124 34.5t39 118.5v423h238v-462q0 -143 -102 -208.5t-299 -65.5t-299 65.5t-102 208.5z" />
    <glyph glyph-name="V" unicode="V" 
d="M281 0l-318 714h261l182 -509h2l182 509h261l-318 -714h-252z" />
    <glyph glyph-name="W" unicode="W" horiz-adv-x="1148" 
d="M214 0l-214 714h230l112 -482h2l129 482h202l129 -482h2l112 482h230l-214 -714h-235l-124 465h-2l-124 -465h-235z" />
    <glyph glyph-name="X" unicode="X" horiz-adv-x="852" 
d="M-21 0l310 371l-277 343h283l131 -192l131 192h283l-277 -343l310 -371h-295l-152 216l-152 -216h-295z" />
    <glyph glyph-name="Y" unicode="Y" 
d="M288 0v225l-317 489h276l160 -303l160 303h276l-317 -489v-225h-238z" />
    <glyph glyph-name="Z" unicode="Z" 
d="M18 0v137l450 417h-419v160h738v-140l-447 -414h440v-160h-762z" />
    <glyph glyph-name="bracketleft" unicode="[" horiz-adv-x="481" 
d="M72 -190v904h384v-154h-172v-596h172v-154h-384z" />
    <glyph glyph-name="backslash" unicode="\" horiz-adv-x="444" 
d="M288 -22l-288 758h156l288 -758h-156z" />
    <glyph glyph-name="bracketright" unicode="]" horiz-adv-x="481" 
d="M25 -190v154h172v596h-172v154h384v-904h-384z" />
    <glyph glyph-name="asciicircum" unicode="^" horiz-adv-x="600" 
d="M47 327l175 365h156l175 -365h-143l-110 237l-110 -237h-143z" />
    <glyph glyph-name="underscore" unicode="_" horiz-adv-x="500" 
d="M0 -125v50h500v-50h-500z" />
    <glyph glyph-name="grave" unicode="`" horiz-adv-x="278" 
d="M65 604l-149 140h258l91 -140h-200z" />
    <glyph glyph-name="a" unicode="a" 
d="M276 372h-212q6 47 27.5 81t52 53.5t75 31t87 15t97.5 3.5q80 0 138 -7.5t107.5 -27t74.5 -57t25 -92.5v-274q0 -58 22 -98h-212q-9 21 -11 50q-43 -41 -105 -56.5t-150 -15.5q-265 0 -265 169q0 89 57.5 129t176.5 48l211 14q39 3 51.5 12.5t12.5 31.5q0 58 -134 58
q-111 0 -126 -68zM542 220v33q-25 -8 -81 -15l-143 -17q-61 -7 -61 -55q0 -31 26 -48.5t69 -17.5q91 0 140.5 32t49.5 88z" />
    <glyph glyph-name="b" unicode="b" 
d="M56 0v730h212v-257h2q57 83 202 83t230 -81t85 -203q0 -139 -85.5 -216.5t-231.5 -77.5q-136 0 -206 86h-2v-64h-206zM268 270q0 -64 39 -101t112 -37t111.5 35.5t38.5 102.5t-38.5 102.5t-111.5 35.5t-112 -37t-39 -101z" />
    <glyph glyph-name="c" unicode="c" 
d="M563 221h224q-25 -121 -113.5 -182t-261.5 -61q-184 0 -282 73t-98 220q0 144 100.5 218.5t279.5 74.5q339 0 365 -233h-218q-16 93 -144 93q-75 0 -117 -40t-42 -113t41.5 -113t118.5 -40q126 0 147 103z" />
    <glyph glyph-name="d" unicode="d" 
d="M552 0v64h-2q-70 -86 -206 -86q-146 0 -231.5 77.5t-85.5 216.5q0 122 85 203t230 81t202 -83h2v257h212v-730h-206zM546 270q0 64 -39 101t-112 37t-111.5 -35.5t-38.5 -102.5t38.5 -102.5t111.5 -35.5t112 37t39 101z" />
    <glyph glyph-name="e" unicode="e" 
d="M250 331h314q-10 49 -48.5 80t-108.5 31t-108.5 -31t-48.5 -80zM548 161h224q-22 -77 -111 -130t-249 -53q-380 0 -380 294q0 141 100.5 216.5t273.5 75.5q179 0 277.5 -81t98.5 -246v-16h-532q19 -121 170 -121q80 0 128 61z" />
    <glyph glyph-name="f" unicode="f" horiz-adv-x="463" 
d="M0 402v140h111v46q0 41 8.5 67.5t32.5 47.5t70 31t117 10q58 0 124 -8v-120h-95q-28 0 -36.5 -8t-8.5 -33v-33h140v-140h-140v-402h-212v402h-111z" />
    <glyph glyph-name="g" unicode="g" horiz-adv-x="833" 
d="M571 473v69h206v-493q0 -137 -83.5 -197t-277.5 -60q-174 0 -265 40t-107 146h234q13 -64 129 -64q88 0 123 32.5t35 108.5v38q-68 -69 -217 -69q-164 0 -242.5 73.5t-78.5 192.5q0 114 82.5 190t238.5 76q159 0 221 -83h2zM251 287q0 -57 39.5 -93t116.5 -36
q158 0 158 127q0 60 -39.5 95.5t-118.5 35.5q-77 0 -116.5 -36t-39.5 -93z" />
    <glyph glyph-name="h" unicode="h" horiz-adv-x="778" 
d="M56 0v732h212v-268h2q29 42 87 67t135 25q104 0 167 -50.5t63 -148.5v-357h-212v293q0 103 -110 103q-59 0 -95.5 -33t-36.5 -97v-266h-212z" />
    <glyph glyph-name="i" unicode="i" horiz-adv-x="332" 
d="M60 0v542h212v-542h-212zM60 604v128h212v-128h-212z" />
    <glyph glyph-name="j" unicode="j" horiz-adv-x="352" 
d="M-27 -193v145h25q55 0 68.5 12t13.5 58v520h212v-535q0 -119 -43 -161t-170 -42q-22 0 -106 3zM80 604v128h212v-128h-212z" />
    <glyph glyph-name="k" unicode="k" horiz-adv-x="778" 
d="M56 0v732h212v-379l212 189h287l-250 -201l274 -341h-288l-154 205l-81 -65v-140h-212z" />
    <glyph glyph-name="l" unicode="l" horiz-adv-x="332" 
d="M60 0v732h212v-732h-212z" />
    <glyph glyph-name="m" unicode="m" horiz-adv-x="1168" 
d="M56 0v542h206v-79h2q95 93 218 93q131 0 192 -93q47 46 99.5 69.5t128.5 23.5q93 0 151.5 -44.5t58.5 -139.5v-372h-212v316q0 39 -24 59.5t-67 20.5q-57 0 -88 -25.5t-31 -67.5v-303h-212v316q0 39 -24 59.5t-67 20.5q-57 0 -88 -25.5t-31 -67.5v-303h-212z" />
    <glyph glyph-name="n" unicode="n" horiz-adv-x="778" 
d="M56 0v542h206v-78h2q75 92 228 92q104 0 167 -50.5t63 -148.5v-357h-212v293q0 103 -110 103q-59 0 -95.5 -33t-36.5 -97v-266h-212z" />
    <glyph glyph-name="o" unicode="o" 
d="M407 424q-73 0 -114.5 -39t-41.5 -114t41.5 -114t114.5 -39t114.5 39t41.5 114t-41.5 114t-114.5 39zM27 271q0 143 98 218t282 75t282 -75t98 -218t-98 -218t-282 -75t-282 75t-98 218z" />
    <glyph glyph-name="p" unicode="p" 
d="M56 -196v738h206v-72h2q70 86 206 86q146 0 231.5 -77.5t85.5 -216.5q0 -122 -85 -203t-230 -81q-68 0 -121 19.5t-81 51.5h-2v-245h-212zM268 270q0 -64 39 -101t112 -37t111.5 35.5t38.5 102.5t-38.5 102.5t-111.5 35.5t-112 -37t-39 -101z" />
    <glyph glyph-name="q" unicode="q" 
d="M546 -196v245h-2q-64 -71 -208 -71q-145 0 -227 80t-82 204q0 135 89 214.5t234 79.5q61 0 114 -22.5t86 -63.5h2v72h206v-738h-212zM546 270q0 64 -39 101t-112 37t-111.5 -35.5t-38.5 -102.5t38.5 -102.5t111.5 -35.5t112 37t39 101z" />
    <glyph glyph-name="r" unicode="r" horiz-adv-x="574" 
d="M60 0v542h209v-107h2q32 55 91 88t130 33q40 0 72 -6v-198q-49 18 -117 18q-88 0 -131.5 -42t-43.5 -118v-210h-212z" />
    <glyph glyph-name="s" unicode="s" horiz-adv-x="759" 
d="M27 169h246q5 -33 30 -46q29 -17 94 -17q97 0 97 48q0 21 -16 29.5t-57 13.5l-189 23q-95 11 -141 47t-46 104q0 105 83.5 149t245.5 44q324 0 338 -180h-238q-3 33 -38 46q-28 12 -76 12q-97 0 -97 -51q0 -30 68 -38l183 -20q113 -12 165.5 -50.5t52.5 -116.5
q0 -188 -347 -188q-352 0 -358 191z" />
    <glyph glyph-name="t" unicode="t" horiz-adv-x="500" 
d="M0 402v140h111v172h212v-172h140v-140h-140v-218q0 -36 12.5 -46t56.5 -10q19 0 75 2v-132q-72 -10 -161 -10q-106 0 -150.5 32.5t-44.5 118.5v263h-111z" />
    <glyph glyph-name="u" unicode="u" horiz-adv-x="778" 
d="M56 197v345h212v-280q0 -67 27.5 -95.5t82.5 -28.5q59 0 95.5 33t36.5 97v274h212v-542h-206v70h-2q-75 -92 -228 -92q-106 0 -168 52t-62 167z" />
    <glyph glyph-name="v" unicode="v" horiz-adv-x="722" 
d="M240 0l-250 542h241l130 -357l130 357h241l-250 -542h-242z" />
    <glyph glyph-name="w" unicode="w" horiz-adv-x="1130" 
d="M198 0l-196 542h230l112 -356h2l123 356h192l123 -356h2l112 356h230l-196 -542h-252l-114 319h-2l-114 -319h-252z" />
    <glyph glyph-name="x" unicode="x" horiz-adv-x="778" 
d="M-6 0l250 281l-229 261h263l111 -157l111 157h263l-228 -261l249 -281h-273l-122 167l-122 -167h-273z" />
    <glyph glyph-name="y" unicode="y" horiz-adv-x="685" 
d="M64 -190v134h51q35 0 56 6.5t28 13.5t13 19l24 48l-255 511h230l137 -322l132 322h224l-288 -610q-23 -47 -41.5 -71t-58 -40.5t-103.5 -16.5q-67 0 -149 6z" />
    <glyph glyph-name="z" unicode="z" horiz-adv-x="667" 
d="M22 0v128l326 264v2h-309v148h596v-128l-316 -266h326v-148h-623z" />
    <glyph glyph-name="braceleft" unicode="{" horiz-adv-x="481" 
d="M28 195v134q17 0 35 3t38.5 17.5t20.5 38.5v188q0 138 150 138h175v-128h-55q-58 0 -58 -62v-169q0 -34 -21 -56t-42.5 -28.5t-44.5 -7.5v-2q15 -1 25 -2.5t27.5 -8t28 -16.5t19 -29t8.5 -45v-160q0 -62 58 -62h55v-128h-175q-150 0 -150 138v179q0 28 -20.5 44.5t-39 20
t-34.5 3.5z" />
    <glyph glyph-name="bar" unicode="|" horiz-adv-x="222" 
d="M37 -22v758h148v-758h-148z" />
    <glyph glyph-name="braceright" unicode="}" horiz-adv-x="481" 
d="M453 329v-134q-17 0 -35 -3t-38.5 -17.5t-20.5 -38.5v-188q0 -138 -150 -138h-175v128h55q58 0 58 62v169q0 34 21 56t42.5 28.5t44.5 7.5v2q-15 1 -25 2.5t-27.5 8t-28 16.5t-19 29t-8.5 45v160q0 62 -58 62h-55v128h175q150 0 150 -138v-179q0 -28 20.5 -44.5t39 -20
t34.5 -3.5z" />
    <glyph glyph-name="asciitilde" unicode="~" horiz-adv-x="600" 
d="M105 145l-36 126q45 86 125 86q43 0 111 -32q76 -36 102 -36q19 0 36.5 12t27 24.5t24.5 35.5l36 -126q-20 -27 -33 -42t-38 -29.5t-54 -14.5q-42 0 -102 33q-62 35 -115 35q-51 0 -84 -72z" />
    <glyph glyph-name="exclamdown" unicode="&#xa1;" horiz-adv-x="388" 
d="M79 -172l29 461h172l29 -461h-230zM82 344v198h224v-198h-224z" />
    <glyph glyph-name="cent" unicode="&#xa2;" horiz-adv-x="888" 
d="M430 120v303q-61 -8 -94.5 -47.5t-33.5 -104.5t33 -104t95 -47zM430 -128v108q-352 9 -352 291q0 281 352 292v91h56v-91q312 -8 337 -232h-218q-14 84 -119 92v-303q105 9 123 101h224q-20 -117 -101 -177t-246 -64v-108h-56z" />
    <glyph glyph-name="sterling" unicode="&#xa3;" horiz-adv-x="888" 
d="M74 301v104h57q-24 51 -24 95q0 103 97.5 155.5t255.5 52.5q178 0 266 -61.5t88 -197.5h-246q0 49 -22 75q-25 30 -87 30q-46 0 -76 -21t-30 -53q0 -23 16 -75h158v-104h-151q-7 -84 -85 -135l2 -2q47 25 112 25q31 0 99.5 -12.5t103.5 -12.5q91 0 164 60l64 -165
q-104 -75 -232 -75q-50 0 -158.5 22.5t-145.5 22.5q-70 0 -153 -45l-87 149q44 26 68 55t24 70q0 29 -2 43h-76z" />
    <glyph glyph-name="currency" unicode="&#xa4;" horiz-adv-x="888" 
d="M444 486q-57 0 -92.5 -38.5t-35.5 -101.5t35.5 -101.5t92.5 -38.5t92.5 38.5t35.5 101.5q0 60 -36 100t-92 40zM161 134l61 61q-46 66 -46 151q0 86 47 151l-62 60l73 73l60 -62q64 46 150 46t150 -46l60 62l73 -73l-62 -60q47 -65 47 -151q0 -87 -48 -151l63 -61
l-73 -72l-60 63q-63 -47 -150 -47t-150 47l-60 -63z" />
    <glyph glyph-name="yen" unicode="&#xa5;" horiz-adv-x="888" 
d="M338 0v97h-216v104h216v44l-23 33h-193v104h120l-221 310h263l160 -292l160 292h263l-220 -310h119v-104h-193l-23 -33v-44h216v-104h-216v-97h-212z" />
    <glyph glyph-name="brokenbar" unicode="&#xa6;" horiz-adv-x="222" 
d="M37 -22v296h148v-296h-148zM37 440v296h148v-296h-148z" />
    <glyph glyph-name="section" unicode="&#xa7;" horiz-adv-x="888" 
d="M525 31l-277 65q-98 22 -157 72t-59 131q0 113 103 158q-36 33 -36 91q0 31 14 61t47 60t100 48.5t160 18.5q338 0 363 -213h-227q-1 40 -32 56.5t-101 16.5q-106 0 -106 -50q0 -16 17.5 -26t66.5 -20l226 -47q122 -26 175.5 -74.5t53.5 -127.5q0 -100 -95 -151
q46 -40 46 -93q0 -95 -85 -149t-264 -54q-355 0 -380 220h227q8 -50 48.5 -68t115.5 -18q47 0 77.5 13.5t30.5 36.5q0 18 -11.5 27t-40.5 16zM580 291l-318 81q-32 -25 -32 -55q0 -42 65 -59l339 -86q24 25 24 56q0 24 -18.5 38t-59.5 25z" />
    <glyph glyph-name="dieresis" unicode="&#xa8;" horiz-adv-x="278" 
d="M-120 595v128h212v-128h-212zM186 595v128h212v-128h-212z" />
    <glyph glyph-name="copyright" unicode="&#xa9;" horiz-adv-x="800" 
d="M149 357q0 -121 73.5 -195t177.5 -74q102 0 176.5 74t74.5 195t-74.5 195t-176.5 74q-104 0 -177.5 -74t-73.5 -195zM483 298h114q-11 -76 -61.5 -118t-119.5 -42q-94 0 -152.5 62.5t-58.5 155.5q0 96 56 157.5t149 61.5q73 0 122 -40t61 -116h-110q-14 60 -73 60
q-45 0 -70 -32.5t-25 -88.5t26.5 -90t71.5 -34q29 0 47.5 16.5t22.5 47.5zM21 357q0 157 111 268t268 111t268 -111t111 -268t-111 -268t-268 -111t-268 111t-111 268z" />
    <glyph glyph-name="ordfeminine" unicode="&#xaa;" horiz-adv-x="529" 
d="M518 358h-151q-6 15 -6 30q-62 -42 -165 -42q-95 0 -140 27t-45 86q0 101 167 108l125 6q43 2 43 23q0 32 -80 32q-64 0 -75 -36h-155q10 68 76 96q49 20 157 20q116 0 175 -25t59 -93v-173q0 -35 15 -59zM349 499v14q-5 -1 -52 -7l-78 -11q-40 -5 -40 -31
q0 -13 16 -22.5t39 -9.5q53 0 84 18.5t31 48.5z" />
    <glyph glyph-name="guillemotleft" unicode="&#xab;" horiz-adv-x="648" 
d="M344 202v176l206 152v-148l-122 -92l122 -92v-148zM84 202v176l206 152v-148l-122 -92l122 -92v-148z" />
    <glyph glyph-name="logicalnot" unicode="&#xac;" horiz-adv-x="600" 
d="M413 108v187h-366v140h506v-327h-140z" />
    <glyph glyph-name="registered" unicode="&#xae;" horiz-adv-x="800" 
d="M21 357q0 157 111 268t268 111t268 -111t111 -268t-111 -268t-268 -111t-268 111t-111 268zM149 357q0 -121 73.5 -195t177.5 -74q102 0 176.5 74t74.5 195t-74.5 195t-176.5 74q-104 0 -177.5 -74t-73.5 -195zM254 177v386h134q87 0 130.5 -28t43.5 -97
q0 -51 -23.5 -75.5t-54.5 -29.5l89 -156h-107l-83 146h-33v-146h-96zM350 397h50q58 0 58 46t-58 46h-50v-92z" />
    <glyph glyph-name="macron" unicode="&#xaf;" horiz-adv-x="278" 
d="M-124 620v116h526v-116h-526z" />
    <glyph glyph-name="degree" unicode="&#xb0;" horiz-adv-x="400" 
d="M40 548q0 66 47 113t113 47t113 -47t47 -113t-47 -113t-113 -47t-113 47t-47 113zM114 548q0 -35 25.5 -60.5t60.5 -25.5t60.5 25.5t25.5 60.5t-25.5 60.5t-60.5 25.5t-60.5 -25.5t-25.5 -60.5z" />
    <glyph glyph-name="plusminus" unicode="&#xb1;" horiz-adv-x="600" 
d="M230 418v88h140v-88h183v-140h-183v-88h-140v88h-183v140h183zM47 0v140h506v-140h-506z" />
    <glyph glyph-name="twosuperior" unicode="&#xb2;" horiz-adv-x="577" 
d="M538 386v-104h-524q4 88 58 134.5t151 71.5l108 28q47 13 47 42q0 44 -80 46q-40 0 -66.5 -17t-29.5 -51h-180q7 96 82 137q65 35 194 35q260 0 260 -151q0 -100 -155 -127q-180 -31 -204 -42v-2h339z" />
    <glyph glyph-name="threesuperior" unicode="&#xb3;" horiz-adv-x="577" 
d="M198 446v96h89q71 0 71 34q0 36 -79 36q-36 0 -56 -7.5t-29 -30.5h-178q8 79 89 110q63 24 185 24q133 0 190.5 -29t57.5 -95q0 -36 -26 -58.5t-65 -24.5v-2q47 -4 78.5 -29t31.5 -69q0 -68 -68 -99.5t-207 -31.5q-153 0 -213.5 33t-65.5 107h174q3 -15 27 -26
q28 -10 73 -10q94 0 94 31q0 41 -94 41h-79z" />
    <glyph glyph-name="acute" unicode="&#xb4;" horiz-adv-x="278" 
d="M13 604l91 140h258l-149 -140h-200z" />
    <glyph glyph-name="mu" unicode="&#xb5;" horiz-adv-x="778" 
d="M516 0v70h-2q-66 -92 -151 -92q-62 0 -93 36h-2v-210h-212v738h212v-280q0 -67 27.5 -95.5t82.5 -28.5q59 0 95.5 33t36.5 97v274h212v-542h-206z" />
    <glyph glyph-name="paragraph" unicode="&#xb6;" horiz-adv-x="720" 
d="M256 -174v504q-110 0 -171.5 48.5t-61.5 140.5q0 47 13.5 82t36 56.5t56.5 34.5t69.5 17.5t80.5 4.5h364v-888h-140v778h-107v-778h-140z" />
    <glyph glyph-name="periodcentered" unicode="&#xb7;" horiz-adv-x="388" 
d="M75 260q0 50 34.5 84.5t84.5 34.5t84.5 -34.5t34.5 -84.5t-34.5 -84.5t-84.5 -34.5t-84.5 34.5t-34.5 84.5z" />
    <glyph glyph-name="cedilla" unicode="&#xb8;" horiz-adv-x="278" 
d="M-9 -204l18 51q49 -14 81 -14q22 0 34.5 9t12.5 22q0 25 -39 25q-15 0 -36 -7l-25 20l56 83h69l-27 -43q22 2 43 2q36 0 67.5 -20t31.5 -59q0 -88 -140 -88q-75 0 -146 19z" />
    <glyph glyph-name="onesuperior" unicode="&#xb9;" horiz-adv-x="397" 
d="M161 282v242h-128v104h22q57 0 92 14t53 56h123v-416h-162z" />
    <glyph glyph-name="ordmasculine" unicode="&#xba;" horiz-adv-x="529" 
d="M169 527q0 -41 25 -63t71 -22q45 0 70 22t25 63t-25 63t-70 22t-70.5 -22t-25.5 -63zM1 527q0 91 68 136t196 45q127 0 195 -45t68 -136q0 -90 -68 -135.5t-195 -45.5t-195.5 45.5t-68.5 135.5z" />
    <glyph glyph-name="guillemotright" unicode="&#xbb;" horiz-adv-x="648" 
d="M98 50v148l122 92l-122 92v148l206 -152v-176zM358 50v148l122 92l-122 92v148l206 -152v-176z" />
    <glyph glyph-name="onequarter" unicode="&#xbc;" horiz-adv-x="1333" 
d="M983 0v55h-302v108l255 253h201v-239h70v-122h-70v-55h-154zM983 177v155l-161 -155h161zM293 -16l455 724h112l-455 -724h-112zM191 282v242h-128v104h22q57 0 92 14t53 56h123v-416h-162z" />
    <glyph glyph-name="onehalf" unicode="&#xbd;" horiz-adv-x="1333" 
d="M278 -16l455 724h112l-455 -724h-112zM191 282v242h-128v104h22q57 0 92 14t53 56h123v-416h-162zM1214 104v-104h-524q4 88 58 134.5t151 71.5l108 28q47 13 47 42q0 44 -80 46q-40 0 -66.5 -17t-29.5 -51h-180q7 96 82 137q65 35 194 35q260 0 260 -151
q0 -100 -155 -127q-180 -31 -204 -42v-2h339z" />
    <glyph glyph-name="threequarters" unicode="&#xbe;" horiz-adv-x="1333" 
d="M1073 0v55h-302v108l255 253h201v-239h70v-122h-70v-55h-154zM1073 177v155l-161 -155h161zM218 446v96h89q71 0 71 34q0 36 -79 36q-36 0 -56 -7.5t-29 -30.5h-178q8 79 89 110q63 24 185 24q133 0 190.5 -29t57.5 -95q0 -36 -26 -58.5t-65 -24.5v-2q47 -4 78.5 -29
t31.5 -69q0 -68 -68 -99.5t-207 -31.5q-153 0 -213.5 33t-65.5 107h174q3 -15 27 -26q28 -10 73 -10q94 0 94 31q0 41 -94 41h-79zM423 -16l455 724h112l-455 -724h-112z" />
    <glyph glyph-name="questiondown" unicode="&#xbf;" horiz-adv-x="796" 
d="M301 289h218q-1 -55 -16.5 -83.5t-56.5 -49.5l-109 -56q-58 -30 -58 -75q0 -33 32.5 -54t81.5 -21q76 0 108 30.5t36 90.5h235q-15 -137 -101 -199t-270 -62q-169 0 -264.5 55.5t-95.5 166.5q0 49 25 84.5t62 55t74 35t65.5 36t33.5 46.5zM298 344v198h224v-198h-224z
" />
    <glyph glyph-name="Agrave" unicode="&#xc0;" horiz-adv-x="852" 
d="M-28 0l310 714h291l307 -714h-255l-43 116h-312l-43 -116h-255zM526 264l-99 270h-2l-99 -270h200zM352 761l-149 140h258l91 -140h-200z" />
    <glyph glyph-name="Aacute" unicode="&#xc1;" horiz-adv-x="852" 
d="M-28 0l310 714h291l307 -714h-255l-43 116h-312l-43 -116h-255zM526 264l-99 270h-2l-99 -270h200zM300 761l91 140h258l-149 -140h-200z" />
    <glyph glyph-name="Acircumflex" unicode="&#xc2;" horiz-adv-x="852" 
d="M-28 0l310 714h291l307 -714h-255l-43 116h-312l-43 -116h-255zM526 264l-99 270h-2l-99 -270h200zM129 761l149 140h296l149 -140h-234l-71 77l-71 -77h-218z" />
    <glyph glyph-name="Atilde" unicode="&#xc3;" horiz-adv-x="852" 
d="M-28 0l310 714h291l307 -714h-255l-43 116h-312l-43 -116h-255zM526 264l-99 270h-2l-99 -270h200zM254 756h-96q34 145 162 145q30 0 71 -9l139 -29q25 -5 28 -5q29 0 43 35h93q-8 -65 -42 -106.5t-99 -41.5q-21 0 -46 4t-47 8.5t-100 22.5q-55 12 -60 12q-36 0 -46 -36
z" />
    <glyph glyph-name="Adieresis" unicode="&#xc4;" horiz-adv-x="852" 
d="M-28 0l310 714h291l307 -714h-255l-43 116h-312l-43 -116h-255zM526 264l-99 270h-2l-99 -270h200zM167 752v128h212v-128h-212zM473 752v128h212v-128h-212z" />
    <glyph glyph-name="Aring" unicode="&#xc5;" horiz-adv-x="852" 
d="M-28 0l310 714h291l307 -714h-255l-43 116h-312l-43 -116h-255zM526 264l-99 270h-2l-99 -270h200zM294 867q0 55 38.5 93.5t93.5 38.5t93.5 -38.5t38.5 -93.5t-38.5 -93.5t-93.5 -38.5t-93.5 38.5t-38.5 93.5zM368 867q0 -24 17 -41t41 -17t41 17t17 41t-17 41t-41 17
t-41 -17t-17 -41z" />
    <glyph glyph-name="AE" unicode="&#xc6;" horiz-adv-x="1148" 
d="M-17 0l359 714h774v-154h-372v-129h358v-148h-358v-129h376v-154h-588v135h-237l-60 -135h-252zM532 283v283h-46l-125 -283h171z" />
    <glyph glyph-name="Ccedilla" unicode="&#xc7;" horiz-adv-x="963" 
d="M672 275h264q-12 -63 -35.5 -110.5t-70.5 -91.5t-130 -68.5t-200 -25.5l-22 -37q22 2 43 2q36 0 67.5 -20t31.5 -59q0 -88 -140 -88q-75 0 -146 19l18 51q49 -14 81 -14q22 0 34.5 9t12.5 22q0 25 -39 25q-15 0 -36 -7l-25 20l52 78q-198 10 -297.5 106t-99.5 271
q0 184 110.5 281.5t338.5 97.5q70 0 126 -7t111 -26.5t95 -52t71.5 -86t46.5 -125.5h-265q-38 137 -184 137q-105 0 -151.5 -60.5t-46.5 -158.5q0 -219 198 -219q79 0 127 36.5t60 100.5z" />
    <glyph glyph-name="Egrave" unicode="&#xc8;" horiz-adv-x="815" 
d="M72 0v714h715v-154h-477v-129h447v-148h-447v-129h477v-154h-715zM334 776l-149 140h258l91 -140h-200z" />
    <glyph glyph-name="Eacute" unicode="&#xc9;" horiz-adv-x="815" 
d="M72 0v714h715v-154h-477v-129h447v-148h-447v-129h477v-154h-715zM282 776l91 140h258l-149 -140h-200z" />
    <glyph glyph-name="Ecircumflex" unicode="&#xca;" horiz-adv-x="815" 
d="M72 0v714h715v-154h-477v-129h447v-148h-447v-129h477v-154h-715zM111 776l149 140h296l149 -140h-234l-71 77l-71 -77h-218z" />
    <glyph glyph-name="Edieresis" unicode="&#xcb;" horiz-adv-x="815" 
d="M72 0v714h715v-154h-477v-129h447v-148h-447v-129h477v-154h-715zM149 767v128h212v-128h-212zM455 767v128h212v-128h-212z" />
    <glyph glyph-name="Igrave" unicode="&#xcc;" horiz-adv-x="388" 
d="M75 0v714h238v-714h-238zM120 776l-149 140h258l91 -140h-200z" />
    <glyph glyph-name="Iacute" unicode="&#xcd;" horiz-adv-x="388" 
d="M75 0v714h238v-714h-238zM68 776l91 140h258l-149 -140h-200z" />
    <glyph glyph-name="Icircumflex" unicode="&#xce;" horiz-adv-x="388" 
d="M75 0v714h238v-714h-238zM-103 776l149 140h296l149 -140h-234l-71 77l-71 -77h-218z" />
    <glyph glyph-name="Idieresis" unicode="&#xcf;" horiz-adv-x="388" 
d="M75 0v714h238v-714h-238zM-65 767v128h212v-128h-212zM241 767v128h212v-128h-212z" />
    <glyph glyph-name="Eth" unicode="&#xd0;" horiz-adv-x="963" 
d="M72 0v291h-72v134h72v289h516q167 0 253.5 -90t86.5 -267q0 -102 -28.5 -174t-81 -110.5t-116 -55.5t-145.5 -17h-485zM466 425v-134h-156v-131h199q49 0 84 16.5t53.5 46t27 62.5t8.5 73q0 196 -192 196h-180v-129h156z" />
    <glyph glyph-name="Ntilde" unicode="&#xd1;" horiz-adv-x="981" 
d="M72 0v714h274l331 -447h2v447h230v-714h-263l-342 451h-2v-451h-230zM319 771h-96q34 145 162 145q30 0 71 -9l139 -29q25 -5 28 -5q29 0 43 35h93q-8 -65 -42 -106.5t-99 -41.5q-21 0 -46 4t-47 8.5t-100 22.5q-55 12 -60 12q-36 0 -46 -36z" />
    <glyph glyph-name="Ograve" unicode="&#xd2;" horiz-adv-x="1000" 
d="M35 357q0 379 465 379t465 -379t-465 -379t-465 379zM287 357q0 -109 57 -164t156 -55t156 55t57 164t-57 164t-156 55t-156 -55.5t-57 -163.5zM426 776l-149 140h258l91 -140h-200z" />
    <glyph glyph-name="Oacute" unicode="&#xd3;" horiz-adv-x="1000" 
d="M35 357q0 379 465 379t465 -379t-465 -379t-465 379zM287 357q0 -109 57 -164t156 -55t156 55t57 164t-57 164t-156 55t-156 -55.5t-57 -163.5zM374 776l91 140h258l-149 -140h-200z" />
    <glyph glyph-name="Ocircumflex" unicode="&#xd4;" horiz-adv-x="1000" 
d="M35 357q0 379 465 379t465 -379t-465 -379t-465 379zM287 357q0 -109 57 -164t156 -55t156 55t57 164t-57 164t-156 55t-156 -55.5t-57 -163.5zM203 776l149 140h296l149 -140h-234l-71 77l-71 -77h-218z" />
    <glyph glyph-name="Otilde" unicode="&#xd5;" horiz-adv-x="1000" 
d="M35 357q0 379 465 379t465 -379t-465 -379t-465 379zM287 357q0 -109 57 -164t156 -55t156 55t57 164t-57 164t-156 55t-156 -55.5t-57 -163.5zM328 771h-96q34 145 162 145q30 0 71 -9l139 -29q25 -5 28 -5q29 0 43 35h93q-8 -65 -42 -106.5t-99 -41.5q-21 0 -46 4
t-47 8.5t-100 22.5q-55 12 -60 12q-36 0 -46 -36z" />
    <glyph glyph-name="Odieresis" unicode="&#xd6;" horiz-adv-x="1000" 
d="M35 357q0 379 465 379t465 -379t-465 -379t-465 379zM287 357q0 -109 57 -164t156 -55t156 55t57 164t-57 164t-156 55t-156 -55.5t-57 -163.5zM241 767v128h212v-128h-212zM547 767v128h212v-128h-212z" />
    <glyph glyph-name="multiply" unicode="&#xd7;" horiz-adv-x="600" 
d="M201 253l-143 143l99 99l143 -143l143 143l99 -99l-143 -143l143 -143l-99 -99l-143 143l-143 -143l-99 99z" />
    <glyph glyph-name="Oslash" unicode="&#xd8;" horiz-adv-x="1000" 
d="M307 250l341 277q-53 49 -148 49q-99 0 -156 -55.5t-57 -163.5q0 -62 20 -107zM693 464l-341 -277q53 -49 148 -49q99 0 156 55t57 164q0 62 -20 107zM31 26l91 74q-87 93 -87 257q0 379 465 379q203 0 316 -72l105 85l48 -61l-91 -74q87 -93 87 -257q0 -379 -465 -379
q-202 0 -316 72l-105 -85z" />
    <glyph glyph-name="Ugrave" unicode="&#xd9;" horiz-adv-x="926" 
d="M62 252v462h238v-423q0 -84 39 -118.5t124 -34.5t124 34.5t39 118.5v423h238v-462q0 -143 -102 -208.5t-299 -65.5t-299 65.5t-102 208.5zM389 776l-149 140h258l91 -140h-200z" />
    <glyph glyph-name="Uacute" unicode="&#xda;" horiz-adv-x="926" 
d="M62 252v462h238v-423q0 -84 39 -118.5t124 -34.5t124 34.5t39 118.5v423h238v-462q0 -143 -102 -208.5t-299 -65.5t-299 65.5t-102 208.5zM337 776l91 140h258l-149 -140h-200z" />
    <glyph glyph-name="Ucircumflex" unicode="&#xdb;" horiz-adv-x="926" 
d="M62 252v462h238v-423q0 -84 39 -118.5t124 -34.5t124 34.5t39 118.5v423h238v-462q0 -143 -102 -208.5t-299 -65.5t-299 65.5t-102 208.5zM166 776l149 140h296l149 -140h-234l-71 77l-71 -77h-218z" />
    <glyph glyph-name="Udieresis" unicode="&#xdc;" horiz-adv-x="926" 
d="M62 252v462h238v-423q0 -84 39 -118.5t124 -34.5t124 34.5t39 118.5v423h238v-462q0 -143 -102 -208.5t-299 -65.5t-299 65.5t-102 208.5zM204 767v128h212v-128h-212zM510 767v128h212v-128h-212z" />
    <glyph glyph-name="Yacute" unicode="&#xdd;" 
d="M288 0v225l-317 489h276l160 -303l160 303h276l-317 -489v-225h-238zM281 776l91 140h258l-149 -140h-200z" />
    <glyph glyph-name="Thorn" unicode="&#xde;" horiz-adv-x="889" 
d="M310 466v-180h212q50 0 72.5 21.5t22.5 68.5t-22.5 68.5t-72.5 21.5h-212zM72 0v714h238v-100h290q138 0 200.5 -64.5t62.5 -173.5q0 -47 -13 -87.5t-40.5 -75.5t-78.5 -55t-120 -20h-301v-138h-238z" />
    <glyph glyph-name="germandbls" unicode="&#xdf;" horiz-adv-x="833" 
d="M63 0v490q0 56 16.5 97.5t55 75.5t110 51.5t173.5 17.5q335 0 335 -192q0 -58 -28.5 -89.5t-70.5 -38.5v-2q63 -11 102.5 -59.5t39.5 -134.5q0 -110 -81 -169t-215 -59q-96 0 -163 19v148q59 -13 108 -13q61 0 94 25t33 74q0 89 -150 89h-66v122h51q116 0 116 63
q0 69 -109 69q-83 0 -111 -33t-28 -104v-447h-212z" />
    <glyph glyph-name="agrave" unicode="&#xe0;" 
d="M276 372h-212q6 47 27.5 81t52 53.5t75 31t87 15t97.5 3.5q80 0 138 -7.5t107.5 -27t74.5 -57t25 -92.5v-274q0 -58 22 -98h-212q-9 21 -11 50q-43 -41 -105 -56.5t-150 -15.5q-265 0 -265 169q0 89 57.5 129t176.5 48l211 14q39 3 51.5 12.5t12.5 31.5q0 58 -134 58
q-111 0 -126 -68zM542 220v33q-25 -8 -81 -15l-143 -17q-61 -7 -61 -55q0 -31 26 -48.5t69 -17.5q91 0 140.5 32t49.5 88zM333 604l-149 140h258l91 -140h-200z" />
    <glyph glyph-name="aacute" unicode="&#xe1;" 
d="M276 372h-212q6 47 27.5 81t52 53.5t75 31t87 15t97.5 3.5q80 0 138 -7.5t107.5 -27t74.5 -57t25 -92.5v-274q0 -58 22 -98h-212q-9 21 -11 50q-43 -41 -105 -56.5t-150 -15.5q-265 0 -265 169q0 89 57.5 129t176.5 48l211 14q39 3 51.5 12.5t12.5 31.5q0 58 -134 58
q-111 0 -126 -68zM542 220v33q-25 -8 -81 -15l-143 -17q-61 -7 -61 -55q0 -31 26 -48.5t69 -17.5q91 0 140.5 32t49.5 88zM281 604l91 140h258l-149 -140h-200z" />
    <glyph glyph-name="acircumflex" unicode="&#xe2;" 
d="M276 372h-212q6 47 27.5 81t52 53.5t75 31t87 15t97.5 3.5q80 0 138 -7.5t107.5 -27t74.5 -57t25 -92.5v-274q0 -58 22 -98h-212q-9 21 -11 50q-43 -41 -105 -56.5t-150 -15.5q-265 0 -265 169q0 89 57.5 129t176.5 48l211 14q39 3 51.5 12.5t12.5 31.5q0 58 -134 58
q-111 0 -126 -68zM542 220v33q-25 -8 -81 -15l-143 -17q-61 -7 -61 -55q0 -31 26 -48.5t69 -17.5q91 0 140.5 32t49.5 88zM110 604l149 140h296l149 -140h-234l-71 77l-71 -77h-218z" />
    <glyph glyph-name="atilde" unicode="&#xe3;" 
d="M276 372h-212q6 47 27.5 81t52 53.5t75 31t87 15t97.5 3.5q80 0 138 -7.5t107.5 -27t74.5 -57t25 -92.5v-274q0 -58 22 -98h-212q-9 21 -11 50q-43 -41 -105 -56.5t-150 -15.5q-265 0 -265 169q0 89 57.5 129t176.5 48l211 14q39 3 51.5 12.5t12.5 31.5q0 58 -134 58
q-111 0 -126 -68zM542 220v33q-25 -8 -81 -15l-143 -17q-61 -7 -61 -55q0 -31 26 -48.5t69 -17.5q91 0 140.5 32t49.5 88zM235 599h-96q34 145 162 145q30 0 71 -9l139 -29q25 -5 28 -5q29 0 43 35h93q-8 -65 -42 -106.5t-99 -41.5q-21 0 -46 4t-47 8.5t-100 22.5
q-55 12 -60 12q-36 0 -46 -36z" />
    <glyph glyph-name="adieresis" unicode="&#xe4;" 
d="M276 372h-212q6 47 27.5 81t52 53.5t75 31t87 15t97.5 3.5q80 0 138 -7.5t107.5 -27t74.5 -57t25 -92.5v-274q0 -58 22 -98h-212q-9 21 -11 50q-43 -41 -105 -56.5t-150 -15.5q-265 0 -265 169q0 89 57.5 129t176.5 48l211 14q39 3 51.5 12.5t12.5 31.5q0 58 -134 58
q-111 0 -126 -68zM542 220v33q-25 -8 -81 -15l-143 -17q-61 -7 -61 -55q0 -31 26 -48.5t69 -17.5q91 0 140.5 32t49.5 88zM148 595v128h212v-128h-212zM454 595v128h212v-128h-212z" />
    <glyph glyph-name="aring" unicode="&#xe5;" 
d="M276 372h-212q6 47 27.5 81t52 53.5t75 31t87 15t97.5 3.5q80 0 138 -7.5t107.5 -27t74.5 -57t25 -92.5v-274q0 -58 22 -98h-212q-9 21 -11 50q-43 -41 -105 -56.5t-150 -15.5q-265 0 -265 169q0 89 57.5 129t176.5 48l211 14q39 3 51.5 12.5t12.5 31.5q0 58 -134 58
q-111 0 -126 -68zM542 220v33q-25 -8 -81 -15l-143 -17q-61 -7 -61 -55q0 -31 26 -48.5t69 -17.5q91 0 140.5 32t49.5 88zM285 720q0 55 38.5 93.5t93.5 38.5t93.5 -38.5t38.5 -93.5t-38.5 -93.5t-93.5 -38.5t-93.5 38.5t-38.5 93.5zM359 720q0 -24 17 -41t41 -17t41 17
t17 41t-17 41t-41 17t-41 -17t-17 -41z" />
    <glyph glyph-name="ae" unicode="&#xe6;" horiz-adv-x="1167" 
d="M266 372h-202q11 63 42.5 104t81 59t93 23.5t104.5 5.5q152 0 221 -62q29 29 85 45.5t115 16.5q166 0 247.5 -84t81.5 -233v-26h-463q5 -53 37.5 -87t100.5 -34q81 0 112 60h206q-33 -95 -113.5 -138.5t-189.5 -43.5q-167 0 -239 87q-37 -40 -110 -63.5t-166 -23.5
q-135 0 -206.5 40.5t-71.5 137.5q0 79 55.5 118t182.5 48q27 2 82.5 5.5t83.5 5.5q60 4 60 47q0 33 -27 47.5t-82 14.5q-57 0 -87 -15t-34 -55zM672 325h271q-9 52 -42.5 84.5t-94.5 32.5q-59 0 -92 -32.5t-42 -84.5zM498 218v30q-18 -9 -51.5 -14t-75.5 -8t-57 -5
q-70 -8 -70 -60q0 -29 25 -45t70 -16q81 0 120 28t39 90z" />
    <glyph glyph-name="ccedilla" unicode="&#xe7;" 
d="M563 221h224q-24 -118 -109.5 -179t-251.5 -63l-23 -37q22 2 43 2q36 0 67.5 -20t31.5 -59q0 -88 -140 -88q-75 0 -146 19l18 51q49 -14 81 -14q22 0 34.5 9t12.5 22q0 25 -39 25q-15 0 -36 -7l-25 20l53 79q-158 9 -242 81.5t-84 208.5q0 144 100.5 218.5t279.5 74.5
q339 0 365 -233h-218q-16 93 -144 93q-75 0 -117 -40t-42 -113t41.5 -113t118.5 -40q126 0 147 103z" />
    <glyph glyph-name="egrave" unicode="&#xe8;" 
d="M250 331h314q-10 49 -48.5 80t-108.5 31t-108.5 -31t-48.5 -80zM548 161h224q-22 -77 -111 -130t-249 -53q-380 0 -380 294q0 141 100.5 216.5t273.5 75.5q179 0 277.5 -81t98.5 -246v-16h-532q19 -121 170 -121q80 0 128 61zM333 604l-149 140h258l91 -140h-200z" />
    <glyph glyph-name="eacute" unicode="&#xe9;" 
d="M250 331h314q-10 49 -48.5 80t-108.5 31t-108.5 -31t-48.5 -80zM548 161h224q-22 -77 -111 -130t-249 -53q-380 0 -380 294q0 141 100.5 216.5t273.5 75.5q179 0 277.5 -81t98.5 -246v-16h-532q19 -121 170 -121q80 0 128 61zM281 604l91 140h258l-149 -140h-200z" />
    <glyph glyph-name="ecircumflex" unicode="&#xea;" 
d="M250 331h314q-10 49 -48.5 80t-108.5 31t-108.5 -31t-48.5 -80zM548 161h224q-22 -77 -111 -130t-249 -53q-380 0 -380 294q0 141 100.5 216.5t273.5 75.5q179 0 277.5 -81t98.5 -246v-16h-532q19 -121 170 -121q80 0 128 61zM110 604l149 140h296l149 -140h-234l-71 77
l-71 -77h-218z" />
    <glyph glyph-name="edieresis" unicode="&#xeb;" 
d="M250 331h314q-10 49 -48.5 80t-108.5 31t-108.5 -31t-48.5 -80zM548 161h224q-22 -77 -111 -130t-249 -53q-380 0 -380 294q0 141 100.5 216.5t273.5 75.5q179 0 277.5 -81t98.5 -246v-16h-532q19 -121 170 -121q80 0 128 61zM148 595v128h212v-128h-212zM454 595v128
h212v-128h-212z" />
    <glyph glyph-name="igrave" unicode="&#xec;" horiz-adv-x="332" 
d="M60 0v542h212v-542h-212zM92 604l-149 140h258l91 -140h-200z" />
    <glyph glyph-name="iacute" unicode="&#xed;" horiz-adv-x="332" 
d="M60 0v542h212v-542h-212zM40 604l91 140h258l-149 -140h-200z" />
    <glyph glyph-name="icircumflex" unicode="&#xee;" horiz-adv-x="332" 
d="M60 0v542h212v-542h-212zM-131 604l149 140h296l149 -140h-234l-71 77l-71 -77h-218z" />
    <glyph glyph-name="idieresis" unicode="&#xef;" horiz-adv-x="332" 
d="M60 0v542h212v-542h-212zM-93 595v128h212v-128h-212zM213 595v128h212v-128h-212z" />
    <glyph glyph-name="eth" unicode="&#xf0;" 
d="M251 241q0 -123 156 -123q77 0 116.5 32t39.5 91t-39.5 91t-116.5 32t-116.5 -32t-39.5 -91zM142 580l117 51q-49 17 -107 33l112 111q102 -16 195 -55l121 53l74 -48l-107 -47q113 -66 176.5 -164.5t63.5 -225.5q0 -160 -96.5 -235t-283.5 -75q-184 0 -282 69t-98 204
q0 83 46.5 142t116 85t152.5 26q106 0 168 -42l2 2q-45 75 -158 128l-146 -64z" />
    <glyph glyph-name="ntilde" unicode="&#xf1;" horiz-adv-x="778" 
d="M56 0v542h206v-78h2q75 92 228 92q104 0 167 -50.5t63 -148.5v-357h-212v293q0 103 -110 103q-59 0 -95.5 -33t-36.5 -97v-266h-212zM217 599h-96q34 145 162 145q30 0 71 -9l139 -29q25 -5 28 -5q29 0 43 35h93q-8 -65 -42 -106.5t-99 -41.5q-21 0 -46 4t-47 8.5
t-100 22.5q-55 12 -60 12q-36 0 -46 -36z" />
    <glyph glyph-name="ograve" unicode="&#xf2;" 
d="M407 424q-73 0 -114.5 -39t-41.5 -114t41.5 -114t114.5 -39t114.5 39t41.5 114t-41.5 114t-114.5 39zM27 271q0 143 98 218t282 75t282 -75t98 -218t-98 -218t-282 -75t-282 75t-98 218zM333 604l-149 140h258l91 -140h-200z" />
    <glyph glyph-name="oacute" unicode="&#xf3;" 
d="M407 424q-73 0 -114.5 -39t-41.5 -114t41.5 -114t114.5 -39t114.5 39t41.5 114t-41.5 114t-114.5 39zM27 271q0 143 98 218t282 75t282 -75t98 -218t-98 -218t-282 -75t-282 75t-98 218zM281 604l91 140h258l-149 -140h-200z" />
    <glyph glyph-name="ocircumflex" unicode="&#xf4;" 
d="M407 424q-73 0 -114.5 -39t-41.5 -114t41.5 -114t114.5 -39t114.5 39t41.5 114t-41.5 114t-114.5 39zM27 271q0 143 98 218t282 75t282 -75t98 -218t-98 -218t-282 -75t-282 75t-98 218zM110 604l149 140h296l149 -140h-234l-71 77l-71 -77h-218z" />
    <glyph glyph-name="otilde" unicode="&#xf5;" 
d="M407 424q-73 0 -114.5 -39t-41.5 -114t41.5 -114t114.5 -39t114.5 39t41.5 114t-41.5 114t-114.5 39zM27 271q0 143 98 218t282 75t282 -75t98 -218t-98 -218t-282 -75t-282 75t-98 218zM235 599h-96q34 145 162 145q30 0 71 -9l139 -29q25 -5 28 -5q29 0 43 35h93
q-8 -65 -42 -106.5t-99 -41.5q-21 0 -46 4t-47 8.5t-100 22.5q-55 12 -60 12q-36 0 -46 -36z" />
    <glyph glyph-name="odieresis" unicode="&#xf6;" 
d="M407 424q-73 0 -114.5 -39t-41.5 -114t41.5 -114t114.5 -39t114.5 39t41.5 114t-41.5 114t-114.5 39zM27 271q0 143 98 218t282 75t282 -75t98 -218t-98 -218t-282 -75t-282 75t-98 218zM148 595v128h212v-128h-212zM454 595v128h212v-128h-212z" />
    <glyph glyph-name="divide" unicode="&#xf7;" horiz-adv-x="600" 
d="M47 183v140h506v-140h-506zM201 465q0 41 29 70t70 29t70 -29t29 -70t-29 -70t-70 -29t-70 29t-29 70zM201 41q0 41 29 70t70 29t70 -29t29 -70t-29 -70t-70 -29t-70 29t-29 70z" />
    <glyph glyph-name="oslash" unicode="&#xf8;" 
d="M20 15l79 61q-72 74 -72 195q0 143 98 218t282 75q160 0 254 -56l93 72l40 -53l-79 -61q72 -72 72 -195q0 -143 -98 -218t-282 -75q-162 0 -254 56l-93 -72zM263 202l248 191q-38 31 -104 31q-73 0 -114.5 -39t-41.5 -114q0 -41 12 -69zM551 340l-248 -191
q38 -31 104 -31q73 0 114.5 39t41.5 114q0 41 -12 69z" />
    <glyph glyph-name="ugrave" unicode="&#xf9;" horiz-adv-x="778" 
d="M56 197v345h212v-280q0 -67 27.5 -95.5t82.5 -28.5q59 0 95.5 33t36.5 97v274h212v-542h-206v70h-2q-75 -92 -228 -92q-106 0 -168 52t-62 167zM315 604l-149 140h258l91 -140h-200z" />
    <glyph glyph-name="uacute" unicode="&#xfa;" horiz-adv-x="778" 
d="M56 197v345h212v-280q0 -67 27.5 -95.5t82.5 -28.5q59 0 95.5 33t36.5 97v274h212v-542h-206v70h-2q-75 -92 -228 -92q-106 0 -168 52t-62 167zM263 604l91 140h258l-149 -140h-200z" />
    <glyph glyph-name="ucircumflex" unicode="&#xfb;" horiz-adv-x="778" 
d="M56 197v345h212v-280q0 -67 27.5 -95.5t82.5 -28.5q59 0 95.5 33t36.5 97v274h212v-542h-206v70h-2q-75 -92 -228 -92q-106 0 -168 52t-62 167zM92 604l149 140h296l149 -140h-234l-71 77l-71 -77h-218z" />
    <glyph glyph-name="udieresis" unicode="&#xfc;" horiz-adv-x="778" 
d="M56 197v345h212v-280q0 -67 27.5 -95.5t82.5 -28.5q59 0 95.5 33t36.5 97v274h212v-542h-206v70h-2q-75 -92 -228 -92q-106 0 -168 52t-62 167zM130 595v128h212v-128h-212zM436 595v128h212v-128h-212z" />
    <glyph glyph-name="yacute" unicode="&#xfd;" horiz-adv-x="685" 
d="M64 -190v134h51q35 0 56 6.5t28 13.5t13 19l24 48l-255 511h230l137 -322l132 322h224l-288 -610q-23 -47 -41.5 -71t-58 -40.5t-103.5 -16.5q-67 0 -149 6zM217 604l91 140h258l-149 -140h-200z" />
    <glyph glyph-name="thorn" unicode="&#xfe;" 
d="M56 -196v928h212v-262h2q26 44 89 65t120 21q134 0 221 -74t87 -215q0 -130 -89 -209.5t-219 -79.5q-140 0 -209 71h-2v-245h-212zM268 270q0 -64 39 -101t112 -37t111.5 35.5t38.5 102.5t-38.5 102.5t-111.5 35.5t-112 -37t-39 -101z" />
    <glyph glyph-name="ydieresis" unicode="&#xff;" horiz-adv-x="685" 
d="M64 -190v134h51q35 0 56 6.5t28 13.5t13 19l24 48l-255 511h230l137 -322l132 322h224l-288 -610q-23 -47 -41.5 -71t-58 -40.5t-103.5 -16.5q-67 0 -149 6zM84 595v128h212v-128h-212zM390 595v128h212v-128h-212z" />
    <glyph glyph-name="dotlessi" unicode="&#x131;" horiz-adv-x="332" 
d="M60 0v542h212v-542h-212z" />
    <glyph glyph-name="Lslash" unicode="&#x141;" horiz-adv-x="760" 
d="M0 164v160l72 44v346h238v-217l171 105v-160l-171 -105v-171h435v-166h-673v208z" />
    <glyph glyph-name="lslash" unicode="&#x142;" horiz-adv-x="332" 
d="M60 0v259l-60 -37v140l60 37v333h212v-212l60 36v-140l-60 -36v-380h-212z" />
    <glyph glyph-name="OE" unicode="&#x152;" horiz-adv-x="1167" 
d="M573 258v214q0 42 -42.5 76t-97.5 34q-160 0 -160 -225q0 -100 37.5 -162.5t122.5 -62.5q62 0 101 40t39 86zM574 0v48q-79 -70 -200 -70q-153 0 -246 100t-93 279q0 180 94 279.5t251 99.5q131 0 194 -70v48h559v-154h-354v-129h341v-148h-341v-129h360v-154h-565z" />
    <glyph glyph-name="oe" unicode="&#x153;" horiz-adv-x="1167" 
d="M922 160h206q-33 -95 -113.5 -138.5t-189.5 -43.5q-167 0 -238 82q-89 -82 -229 -82q-163 0 -247 77.5t-84 215.5t84 215.5t247 77.5q144 0 230 -72q72 72 218 72q166 0 247.5 -84t81.5 -233v-26h-463q5 -53 37.5 -87t100.5 -34q81 0 112 60zM504 271q0 153 -136 153
q-135 0 -135 -153t135 -153q136 0 136 153zM672 325h271q-9 52 -42.5 84.5t-94.5 32.5q-59 0 -92 -32.5t-42 -84.5z" />
    <glyph glyph-name="Scaron" unicode="&#x160;" horiz-adv-x="889" 
d="M836 505h-270q-12 83 -155 83q-124 0 -124 -70q0 -35 53 -44q26 -4 150.5 -23t162.5 -26q105 -18 159 -65.5t54 -137.5q0 -244 -412 -244q-98 0 -169 10t-131 36t-93 75t-38 121h282q5 -44 39 -66t121 -22q125 0 125 75q0 28 -24.5 41t-88.5 23l-238 36q-204 31 -204 202
q0 31 8 60t32.5 60.5t64 54t108 37.5t158.5 15q202 0 310.5 -54t119.5 -177zM297 776l-149 140h234l71 -77l71 77h218l-149 -140h-296z" />
    <glyph glyph-name="scaron" unicode="&#x161;" horiz-adv-x="759" 
d="M27 169h246q5 -33 30 -46q29 -17 94 -17q97 0 97 48q0 21 -16 29.5t-57 13.5l-189 23q-95 11 -141 47t-46 104q0 105 83.5 149t245.5 44q324 0 338 -180h-238q-3 33 -38 46q-28 12 -76 12q-97 0 -97 -51q0 -30 68 -38l183 -20q113 -12 165.5 -50.5t52.5 -116.5
q0 -188 -347 -188q-352 0 -358 191zM232 604l-149 140h234l71 -77l71 77h218l-149 -140h-296z" />
    <glyph glyph-name="Ydieresis" unicode="&#x178;" 
d="M288 0v225l-317 489h276l160 -303l160 303h276l-317 -489v-225h-238zM148 767v128h212v-128h-212zM454 767v128h212v-128h-212z" />
    <glyph glyph-name="Zcaron" unicode="&#x17d;" 
d="M18 0v137l450 417h-419v160h738v-140l-447 -414h440v-160h-762zM259 776l-149 140h234l71 -77l71 77h218l-149 -140h-296z" />
    <glyph glyph-name="zcaron" unicode="&#x17e;" horiz-adv-x="667" 
d="M22 0v128l326 264v2h-309v148h596v-128l-316 -266h326v-148h-623zM186 604l-149 140h234l71 -77l71 77h218l-149 -140h-296z" />
    <glyph glyph-name="florin" unicode="&#x192;" horiz-adv-x="888" 
d="M232 295l22 104h114l33 165q13 63 61.5 103.5t162.5 40.5q34 0 134 -7l-24 -130q-54 3 -55 3q-34 0 -49 -14t-21 -42l-24 -119h112l-22 -104h-112l-72 -347q-16 -79 -74 -111.5t-153 -32.5q-3 0 -136 7l27 130q48 -3 49 -3q40 0 58 18.5t33 93.5l50 245h-114z" />
    <glyph glyph-name="circumflex" unicode="&#x2c6;" horiz-adv-x="278" 
d="M-158 604l149 140h296l149 -140h-234l-71 77l-71 -77h-218z" />
    <glyph glyph-name="caron" unicode="&#x2c7;" horiz-adv-x="278" 
d="M-9 604l-149 140h234l71 -77l71 77h218l-149 -140h-296z" />
    <glyph glyph-name="breve" unicode="&#x2d8;" horiz-adv-x="278" 
d="M-85 744h116q6 -28 33 -40q28 -12 75 -12q97 0 108 52h116q-12 -83 -69 -121q-53 -35 -155 -35q-101 0 -156.5 36t-67.5 120z" />
    <glyph glyph-name="dotaccent" unicode="&#x2d9;" horiz-adv-x="278" 
d="M33 595v128h212v-128h-212z" />
    <glyph glyph-name="ring" unicode="&#x2da;" horiz-adv-x="278" 
d="M7 720q0 55 38.5 93.5t93.5 38.5t93.5 -38.5t38.5 -93.5t-38.5 -93.5t-93.5 -38.5t-93.5 38.5t-38.5 93.5zM81 720q0 -24 17 -41t41 -17t41 17t17 41t-17 41t-41 17t-41 -17t-17 -41z" />
    <glyph glyph-name="ogonek" unicode="&#x2db;" horiz-adv-x="278" 
d="M223 0h90q-51 -32 -75.5 -54t-24.5 -49q0 -18 15 -29.5t45 -11.5q26 0 55 11l5 -56q-54 -19 -132 -19q-128 0 -128 82q0 44 40.5 77t109.5 49z" />
    <glyph glyph-name="tilde" unicode="&#x2dc;" horiz-adv-x="278" 
d="M-33 599h-96q34 145 162 145q30 0 71 -9l139 -29q25 -5 28 -5q29 0 43 35h93q-8 -65 -42 -106.5t-99 -41.5q-21 0 -46 4t-47 8.5t-100 22.5q-55 12 -60 12q-36 0 -46 -36z" />
    <glyph glyph-name="hungarumlaut" unicode="&#x2dd;" horiz-adv-x="278" 
d="M-140 604l91 140h258l-149 -140h-200zM165 604l91 140h258l-149 -140h-200z" />
    <glyph glyph-name="endash" unicode="&#x2013;" horiz-adv-x="500" 
d="M0 220v140h500v-140h-500z" />
    <glyph glyph-name="emdash" unicode="&#x2014;" horiz-adv-x="1000" 
d="M0 220v140h1000v-140h-1000z" />
    <glyph glyph-name="quoteleft" unicode="&#x2018;" horiz-adv-x="388" 
d="M82 320v127q0 119 55.5 188t168.5 79v-82q-90 -16 -99 -114h99v-198h-224z" />
    <glyph glyph-name="quoteright" unicode="&#x2019;" horiz-adv-x="388" 
d="M82 516v198h224v-127q0 -119 -55.5 -188t-168.5 -79v82q90 16 99 114h-99z" />
    <glyph glyph-name="quotesinglbase" unicode="&#x201a;" horiz-adv-x="388" 
d="M82 0v198h224v-127q0 -119 -55.5 -188t-168.5 -79v82q90 16 99 114h-99z" />
    <glyph glyph-name="quotedblleft" unicode="&#x201c;" horiz-adv-x="667" 
d="M66 320v127q0 119 55.5 188t168.5 79v-82q-90 -16 -99 -114h99v-198h-224zM377 320v127q0 119 55.5 188t168.5 79v-82q-90 -16 -99 -114h99v-198h-224z" />
    <glyph glyph-name="quotedblright" unicode="&#x201d;" horiz-adv-x="667" 
d="M377 516v198h224v-127q0 -119 -55.5 -188t-168.5 -79v82q90 16 99 114h-99zM66 516v198h224v-127q0 -119 -55.5 -188t-168.5 -79v82q90 16 99 114h-99z" />
    <glyph glyph-name="quotedblbase" unicode="&#x201e;" horiz-adv-x="667" 
d="M377 0v198h224v-127q0 -119 -55.5 -188t-168.5 -79v82q90 16 99 114h-99zM66 0v198h224v-127q0 -119 -55.5 -188t-168.5 -79v82q90 16 99 114h-99z" />
    <glyph glyph-name="dagger" unicode="&#x2020;" horiz-adv-x="888" 
d="M335 -196v548h-246v154h246v208h218v-208h246v-154h-246v-548h-218z" />
    <glyph glyph-name="daggerdbl" unicode="&#x2021;" horiz-adv-x="888" 
d="M89 -3v140h249v244h-249v140h249v193h212v-193h249v-140h-249v-244h249v-140h-249v-193h-212v193h-249z" />
    <glyph glyph-name="bullet" unicode="&#x2022;" horiz-adv-x="500" 
d="M72 357q0 74 52 126t125 52q74 0 126.5 -52.5t52.5 -126.5q0 -73 -52 -125t-126 -52t-126 52t-52 126z" />
    <glyph glyph-name="ellipsis" unicode="&#x2026;" horiz-adv-x="1000" 
d="M55 0v198h224v-198h-224zM388 0v198h224v-198h-224zM721 0v198h224v-198h-224z" />
    <glyph glyph-name="perthousand" unicode="&#x2030;" horiz-adv-x="1167" 
d="M122 530q0 -52 11 -78t42 -26q32 0 43.5 25t11.5 79q0 53 -11.5 78.5t-43.5 25.5q-31 0 -42 -26t-11 -78zM110 -16l455 724h112l-455 -724h-112zM552 162q0 -52 11 -78t42 -26q32 0 43.5 25t11.5 79q0 53 -11.5 78.5t-43.5 25.5q-31 0 -42 -26t-11 -78zM6 530
q0 77 42 127.5t128 50.5q170 0 170 -178t-170 -178q-86 0 -128 50.5t-42 127.5zM436 162q0 77 42 127.5t128 50.5q170 0 170 -178t-170 -178q-86 0 -128 50.5t-42 127.5zM821 162q0 77 42 127.5t128 50.5q170 0 170 -178t-170 -178q-86 0 -128 50.5t-42 127.5zM937 162
q0 -52 11 -78t42 -26q32 0 43.5 25t11.5 79q0 53 -11.5 78.5t-43.5 25.5q-31 0 -42 -26t-11 -78z" />
    <glyph glyph-name="guilsinglleft" unicode="&#x2039;" horiz-adv-x="388" 
d="M84 202v176l206 152v-148l-122 -92l122 -92v-148z" />
    <glyph glyph-name="guilsinglright" unicode="&#x203a;" horiz-adv-x="388" 
d="M98 50v148l122 92l-122 92v148l206 -152v-176z" />
    <glyph glyph-name="fraction" unicode="&#x2044;" horiz-adv-x="167" 
d="M-200 -16l455 724h112l-455 -724h-112z" />
    <glyph glyph-name="trademark" unicode="&#x2122;" horiz-adv-x="1000" 
d="M114 302v308h-102v104h344v-104h-102v-308h-140zM830 302v258h-2l-89 -258h-88l-89 258h-2v-258h-128v412h174l89 -219l89 219h174v-412h-128z" />
    <glyph glyph-name="minus" unicode="&#x2212;" horiz-adv-x="600" 
d="M47 183v140h506v-140h-506z" />
    <glyph glyph-name="fi" unicode="&#xfb01;" horiz-adv-x="796" 
d="M0 402v140h111v46q0 41 8.5 67.5t32.5 47.5t70 31t117 10q58 0 124 -8v-120h-95q-28 0 -36.5 -8t-8.5 -33v-33h140v-140h-140v-402h-212v402h-111zM524 0v542h212v-542h-212zM524 604v128h212v-128h-212z" />
    <glyph glyph-name="fl" unicode="&#xfb02;" horiz-adv-x="796" 
d="M0 402v140h111v46q0 41 8.5 67.5t32.5 47.5t70 31t117 10q58 0 124 -8v-120h-95q-28 0 -36.5 -8t-8.5 -33v-33h140v-140h-140v-402h-212v402h-111zM524 0v732h212v-732h-212z" />
    </font>
</defs>
</svg>
